<?xml version="1.0" standalone="no"?>
<!DOCTYPE svg PUBLIC "-//W3C//DTD SVG 1.1//EN" "http://www.w3.org/Graphics/SVG/1.1/DTD/svg11.dtd" >
<svg xmlns="http://www.w3.org/2000/svg" xmlns:xlink="http://www.w3.org/1999/xlink" version="1.1">
<metadata>
Created by Christoph Koeberlin (http://christoph.koe.berlin)
Copyright (c) 2018 by Livius Dietzel, Tom Hossfeld. All rights reserved.
</metadata>
<defs>
<font id="Font" horiz-adv-x="600" >
  <font-face 
    font-family="Font"
    font-weight="500"
    font-stretch="normal"
    units-per-em="1000"
    panose-1="2 11 6 4 4 0 0 0 0 0"
    ascent="800"
    descent="-200"
    x-height="515"
    cap-height="724"
    bbox="-406 -257 1213 988"
    underline-thickness="50"
    underline-position="-100"
    unicode-range="U+000D-FEFF"
  />
<missing-glyph horiz-adv-x="608" 
d="M537 710v-740h-466v740h466zM469 645h-330v-610h330v610z" />
    <glyph glyph-name="uniFB01" unicode="fi" horiz-adv-x="575" 
d="M512 0h-127v413h-166v-413h-127v413h-63v102h63v50q0 103 57.5 160t149.5 57q132 0 192 -86l-97 -80q-31 53 -95 53q-37 0 -58.5 -27.5t-21.5 -76.5v-50h293v-515z" />
    <glyph glyph-name="uniFB02" unicode="fl" horiz-adv-x="585" 
d="M522 770v-770h-127v413h-176v-413h-127v413h-63v102h63v50q0 103 57.5 160t149.5 57q26 0 39 -1v-115q-21 3 -39 3q-38 0 -59 -27.5t-21 -76.5v-50h176v255h127z" />
    <glyph glyph-name=".notdef" horiz-adv-x="608" 
d="M537 710v-740h-466v740h466zM469 645h-330v-610h330v610z" />
    <glyph glyph-name="glyph1" horiz-adv-x="0" 
 />
    <glyph glyph-name="uni000D" unicode="&#xd;" horiz-adv-x="225" 
 />
    <glyph glyph-name="space" unicode=" " horiz-adv-x="225" 
 />
    <glyph glyph-name="A" unicode="A" horiz-adv-x="686" 
d="M493 126h-299l-53 -126h-139l321 736h40l320 -736h-137zM443 244l-100 236l-99 -236h199z" />
    <glyph glyph-name="Aacute" unicode="&#xc1;" horiz-adv-x="686" 
d="M493 126h-299l-53 -126h-139l321 736h40l320 -736h-137zM443 244l-100 236l-99 -236h199zM485 936h-131l-77 -154h120z" />
    <glyph glyph-name="Abreve" unicode="&#x102;" horiz-adv-x="686" 
d="M493 126h-299l-53 -126h-139l321 736h40l320 -736h-137zM443 244l-100 236l-99 -236h199zM257.5 791q-38.5 21 -63 55.5t-27.5 71.5h89q6 -28 29.5 -49t54.5 -21q32 0 55 21t29 49h90q-4 -37 -28.5 -71.5t-63 -55.5t-82.5 -21t-82.5 21z" />
    <glyph glyph-name="Acircumflex" unicode="&#xc2;" horiz-adv-x="686" 
d="M493 126h-299l-53 -126h-139l321 736h40l320 -736h-137zM443 244l-100 236l-99 -236h199zM395 781l-51 49l-51 -49h-131l182 162l182 -162h-131z" />
    <glyph glyph-name="Adieresis" unicode="&#xc4;" horiz-adv-x="686" 
d="M493 126h-299l-53 -126h-139l321 736h40l320 -736h-137zM443 244l-100 236l-99 -236h199zM175 792.5q-23 22.5 -23 54.5t23 55t55 23q31 0 54 -22.5t23 -53.5q0 -32 -22.5 -55.5t-54.5 -23.5t-55 22.5zM403 792.5q-23 22.5 -23 54.5t23 55t55 23q31 0 54 -22.5t23 -53.5
q0 -32 -22.5 -55.5t-54.5 -23.5t-55 22.5z" />
    <glyph glyph-name="Agrave" unicode="&#xc0;" horiz-adv-x="686" 
d="M493 126h-299l-53 -126h-139l321 736h40l320 -736h-137zM443 244l-100 236l-99 -236h199zM194 924h131l77 -154h-120z" />
    <glyph glyph-name="Amacron" unicode="&#x100;" horiz-adv-x="686" 
d="M493 126h-299l-53 -126h-139l321 736h40l320 -736h-137zM443 244l-100 236l-99 -236h199zM517 872v-102h-346v102h346z" />
    <glyph glyph-name="Aogonek" unicode="&#x104;" horiz-adv-x="686" 
d="M493 126h-299l-53 -126h-139l321 736h40l320 -736h-137zM443 244l-100 236l-99 -236h199zM524.5 -152q-31.5 27 -31.5 64q0 53 53 88l54 35l83 -35l-42 -19q-54 -24 -54 -54q0 -28 33 -28q28 0 54 18l24 -73q-39 -23 -93 -23q-49 0 -80.5 27z" />
    <glyph glyph-name="Aring" unicode="&#xc5;" horiz-adv-x="693" 
d="M493 125h-291l-57 -125h-139l309 666q-36 11 -59.5 39.5t-23.5 65.5q0 45 34 77t81 32q46 0 80 -32t34 -77q0 -37 -23.5 -65.5t-58.5 -38.5l308 -667h-137zM314.5 739.5q13.5 -12.5 32.5 -12.5t32.5 12.5t13.5 31.5t-13.5 31.5t-32.5 12.5t-32.5 -12.5t-13.5 -31.5
t13.5 -31.5zM438 243l-91 199l-91 -199h182z" />
    <glyph glyph-name="Atilde" unicode="&#xc3;" horiz-adv-x="686" 
d="M493 126h-299l-53 -126h-139l321 736h40l320 -736h-137zM443 244l-100 236l-99 -236h199zM373 779q-18 9 -40 25q-16 12 -26.5 18t-20.5 6q-16 0 -31.5 -15.5t-27.5 -40.5l-65 44q30 58 55.5 81.5t59.5 23.5q21 0 38.5 -9t40.5 -26q16 -12 26.5 -18t20.5 -6q16 0 31.5 16
t27.5 41l65 -53q-30 -53 -55.5 -74.5t-59.5 -21.5q-21 0 -39 9z" />
    <glyph glyph-name="AE" unicode="&#xc6;" horiz-adv-x="925" 
d="M563 606v-201h271v-118h-271v-169h319v-118h-449v119h-243l-71 -119h-148v3l440 721h471v-118h-319zM433 234v293l-175 -293h175z" />
    <glyph glyph-name="B" unicode="B" horiz-adv-x="653" 
d="M322 724q70 0 123.5 -24t82.5 -67t29 -98q0 -96 -61 -139q52 -14 88 -63.5t36 -123.5q0 -60 -30 -107.5t-85 -74.5t-129 -27h-298v724h244zM391 448.5q32 24.5 32 72.5q0 88 -118 88h-97v-185h97q54 0 86 24.5zM454 143.5q32 28.5 32 71.5q0 44 -32 69t-83 25h-163v-194
h163q51 0 83 28.5z" />
    <glyph glyph-name="C" unicode="C" horiz-adv-x="686" 
d="M554.5 21q-73.5 -33 -160.5 -33q-101 0 -182 49t-127 135t-46 191t46 191t127 135t182 49q156 0 259 -100l-88 -99q-35 35 -78 55t-93 20q-65 0 -116 -37t-79 -95t-28 -119t28 -119t79 -95t116 -37q57 0 105.5 25.5t82.5 68.5l98 -91q-52 -61 -125.5 -94z" />
    <glyph glyph-name="Cacute" unicode="&#x106;" horiz-adv-x="686" 
d="M554.5 21q-73.5 -33 -160.5 -33q-101 0 -182 49t-127 135t-46 191t46 191t127 135t182 49q156 0 259 -100l-88 -99q-35 35 -78 55t-93 20q-65 0 -116 -37t-79 -95t-28 -119t28 -119t79 -95t116 -37q57 0 105.5 25.5t82.5 68.5l98 -91q-52 -61 -125.5 -94zM526 927h-131
l-77 -154h120z" />
    <glyph glyph-name="Ccaron" unicode="&#x10c;" horiz-adv-x="686" 
d="M573 931l-182 -162l-182 162h131l51 -49l51 49h131zM554.5 21q-73.5 -33 -160.5 -33q-101 0 -182 49t-127 135t-46 191t46 191t127 135t182 49q156 0 259 -100l-88 -99q-35 35 -78 55t-93 20q-65 0 -116 -37t-79 -95t-28 -119t28 -119t79 -95t116 -37q57 0 105.5 25.5
t82.5 68.5l98 -91q-52 -61 -125.5 -94z" />
    <glyph glyph-name="Ccedilla" unicode="&#xc7;" horiz-adv-x="686" 
d="M456 -51q22 -20 22 -46q0 -34 -29.5 -58t-70.5 -24q-47 0 -95 10l11 64q14 -5 34.5 -9t33.5 -4q11 0 18 5.5t7 15.5q0 14 -22.5 23t-68.5 10l43 127h86l-32 -95l2 1q39 0 61 -20zM554.5 21q-73.5 -33 -160.5 -33q-101 0 -182 49t-127 135t-46 191t46 191t127 135t182 49
q156 0 259 -100l-88 -99q-35 35 -78 55t-93 20q-65 0 -116 -37t-79 -95t-28 -119t28 -119t79 -95t116 -37q57 0 105.5 25.5t82.5 68.5l98 -91q-52 -61 -125.5 -94z" />
    <glyph glyph-name="Ccircumflex" unicode="&#x108;" horiz-adv-x="686" 
d="M554.5 21q-73.5 -33 -160.5 -33q-101 0 -182 49t-127 135t-46 191t46 191t127 135t182 49q156 0 259 -100l-88 -99q-35 35 -78 55t-93 20q-65 0 -116 -37t-79 -95t-28 -119t28 -119t79 -95t116 -37q57 0 105.5 25.5t82.5 68.5l98 -91q-52 -61 -125.5 -94zM432 781l-51 49
l-51 -49h-131l182 162l182 -162h-131z" />
    <glyph glyph-name="Cdotaccent" unicode="&#x10a;" horiz-adv-x="686" 
d="M554.5 21q-73.5 -33 -160.5 -33q-101 0 -182 49t-127 135t-46 191t46 191t127 135t182 49q156 0 259 -100l-88 -99q-35 35 -78 55t-93 20q-65 0 -116 -37t-79 -95t-28 -119t28 -119t79 -95t116 -37q57 0 105.5 25.5t82.5 68.5l98 -91q-52 -61 -125.5 -94zM337.5 793
q-23.5 23 -23.5 54q0 32 23.5 55t54.5 23q30 0 53.5 -23t23.5 -53q0 -32 -23 -55.5t-54 -23.5t-54.5 23z" />
    <glyph glyph-name="D" unicode="D" horiz-adv-x="750" 
d="M358 724q94 0 175 -44.5t129.5 -127t48.5 -190.5t-48.5 -190.5t-129.5 -127t-175 -44.5h-280v724h280zM208 118h143q62 0 115 30.5t84 86.5t31 127t-31 127t-84 87t-115 31h-143v-489z" />
    <glyph glyph-name="Eth" unicode="&#xd0;" horiz-adv-x="758" 
d="M541 679.5q81 -44.5 129.5 -127t48.5 -190.5t-48.5 -190.5t-129.5 -127t-175 -44.5h-280v288h-60v110h60v326h280q94 0 175 -44.5zM474 148.5q53 30.5 84 86.5t31 127t-31 127t-84 87t-115 31h-143v-209h174v-110h-174v-170h143q62 0 115 30.5z" />
    <glyph glyph-name="Dcaron" unicode="&#x10e;" horiz-adv-x="750" 
d="M358 724q94 0 175 -44.5t129.5 -127t48.5 -190.5t-48.5 -190.5t-129.5 -127t-175 -44.5h-280v724h280zM208 118h143q62 0 115 30.5t84 86.5t31 127t-31 127t-84 87t-115 31h-143v-489zM527 931l-182 -162l-182 162h131l51 -49l51 49h131z" />
    <glyph glyph-name="Dcroat" unicode="&#x110;" horiz-adv-x="758" 
d="M541 679.5q81 -44.5 129.5 -127t48.5 -190.5t-48.5 -190.5t-129.5 -127t-175 -44.5h-280v288h-60v110h60v326h280q94 0 175 -44.5zM474 148.5q53 30.5 84 86.5t31 127t-31 127t-84 87t-115 31h-143v-209h174v-110h-174v-170h143q62 0 115 30.5z" />
    <glyph glyph-name="E" unicode="E" horiz-adv-x="578" 
d="M526 724v-118h-318v-181h296v-118h-296v-189h318v-118h-448v724h448z" />
    <glyph glyph-name="Eacute" unicode="&#xc9;" horiz-adv-x="578" 
d="M526 724v-118h-318v-181h296v-118h-296v-189h318v-118h-448v724h448zM444 936h-131l-77 -154h120z" />
    <glyph glyph-name="Ebreve" unicode="&#x114;" horiz-adv-x="578" 
d="M526 724v-118h-318v-181h296v-118h-296v-189h318v-118h-448v724h448zM213.5 791q-38.5 21 -63 55.5t-27.5 71.5h89q6 -28 29.5 -49t54.5 -21q32 0 55 21t29 49h90q-4 -37 -28.5 -71.5t-63 -55.5t-82.5 -21t-82.5 21z" />
    <glyph glyph-name="Ecaron" unicode="&#x11a;" horiz-adv-x="578" 
d="M526 724v-118h-318v-181h296v-118h-296v-189h318v-118h-448v724h448zM497 931l-182 -162l-182 162h131l51 -49l51 49h131z" />
    <glyph glyph-name="Ecircumflex" unicode="&#xca;" horiz-adv-x="578" 
d="M526 724v-118h-318v-181h296v-118h-296v-189h318v-118h-448v724h448zM350 781l-51 49l-51 -49h-131l182 162l182 -162h-131z" />
    <glyph glyph-name="Edieresis" unicode="&#xcb;" horiz-adv-x="578" 
d="M526 724v-118h-318v-181h296v-118h-296v-189h318v-118h-448v724h448zM137 792.5q-23 22.5 -23 54.5t23 55t55 23q31 0 54 -22.5t23 -53.5q0 -32 -22.5 -55.5t-54.5 -23.5t-55 22.5zM365 792.5q-23 22.5 -23 54.5t23 55t55 23q31 0 54 -22.5t23 -53.5q0 -32 -22.5 -55.5
t-54.5 -23.5t-55 22.5z" />
    <glyph glyph-name="Edotaccent" unicode="&#x116;" horiz-adv-x="578" 
d="M526 724v-118h-318v-181h296v-118h-296v-189h318v-118h-448v724h448zM250.5 793q-23.5 23 -23.5 54q0 32 23.5 55t54.5 23q30 0 53.5 -23t23.5 -53q0 -32 -23 -55.5t-54 -23.5t-54.5 23z" />
    <glyph glyph-name="Egrave" unicode="&#xc8;" horiz-adv-x="578" 
d="M526 724v-118h-318v-181h296v-118h-296v-189h318v-118h-448v724h448zM178 924h131l77 -154h-120z" />
    <glyph glyph-name="Emacron" unicode="&#x112;" horiz-adv-x="578" 
d="M526 724v-118h-318v-181h296v-118h-296v-189h318v-118h-448v724h448zM478 872v-102h-346v102h346z" />
    <glyph glyph-name="Eogonek" unicode="&#x118;" horiz-adv-x="578" 
d="M541 -156q-39 -23 -93 -23q-49 0 -80.5 27t-31.5 64q0 53 53 88h-311v724h448v-118h-318v-181h296v-118h-296v-189h318v-118l-42 -19q-54 -24 -54 -54q0 -28 33 -28q28 0 54 18z" />
    <glyph glyph-name="F" unicode="F" horiz-adv-x="544" 
d="M516 724v-118h-308v-181h270v-118h-270v-307h-130v724h438z" />
    <glyph glyph-name="G" unicode="G" horiz-adv-x="813" 
d="M784 386q0 -20 -2 -52q-7 -96 -57.5 -175t-133 -125t-181.5 -46q-103 0 -188.5 50.5t-135 136.5t-49.5 188t49.5 188t135 136.5t188.5 50.5q81 0 151.5 -31t122.5 -87l-95 -89q-34 39 -80.5 62t-98.5 23q-68 0 -123.5 -35.5t-87.5 -94t-32 -123.5t32 -123.5t87.5 -94
t123.5 -35.5q80 0 142 49t88 124l-109 125h253v-22z" />
    <glyph glyph-name="Gbreve" unicode="&#x11e;" horiz-adv-x="813" 
d="M784 386q0 -20 -2 -52q-7 -96 -57.5 -175t-133 -125t-181.5 -46q-103 0 -188.5 50.5t-135 136.5t-49.5 188t49.5 188t135 136.5t188.5 50.5q81 0 151.5 -31t122.5 -87l-95 -89q-34 39 -80.5 62t-98.5 23q-68 0 -123.5 -35.5t-87.5 -94t-32 -123.5t32 -123.5t87.5 -94
t123.5 -35.5q80 0 142 49t88 124l-109 125h253v-22zM308.5 791q-38.5 21 -63 55.5t-27.5 71.5h89q6 -28 29.5 -49t54.5 -21q32 0 55 21t29 49h90q-4 -37 -28.5 -71.5t-63 -55.5t-82.5 -21t-82.5 21z" />
    <glyph glyph-name="Gcircumflex" unicode="&#x11c;" horiz-adv-x="813" 
d="M784 386q0 -20 -2 -52q-7 -96 -57.5 -175t-133 -125t-181.5 -46q-103 0 -188.5 50.5t-135 136.5t-49.5 188t49.5 188t135 136.5t188.5 50.5q81 0 151.5 -31t122.5 -87l-95 -89q-34 39 -80.5 62t-98.5 23q-68 0 -123.5 -35.5t-87.5 -94t-32 -123.5t32 -123.5t87.5 -94
t123.5 -35.5q80 0 142 49t88 124l-109 125h253v-22zM446 781l-51 49l-51 -49h-131l182 162l182 -162h-131z" />
    <glyph glyph-name="uni0122" unicode="&#x122;" horiz-adv-x="813" 
d="M784 386q0 -20 -2 -52q-7 -96 -57.5 -175t-133 -125t-181.5 -46q-103 0 -188.5 50.5t-135 136.5t-49.5 188t49.5 188t135 136.5t188.5 50.5q81 0 151.5 -31t122.5 -87l-95 -89q-34 39 -80.5 62t-98.5 23q-68 0 -123.5 -35.5t-87.5 -94t-32 -123.5t32 -123.5t87.5 -94
t123.5 -35.5q80 0 142 49t88 124l-109 125h253v-22zM320.453 -199.914v194.738h141.117l-64.6777 -194.738h-76.4395z" />
    <glyph glyph-name="Gdotaccent" unicode="&#x120;" horiz-adv-x="813" 
d="M784 386q0 -20 -2 -52q-7 -96 -57.5 -175t-133 -125t-181.5 -46q-103 0 -188.5 50.5t-135 136.5t-49.5 188t49.5 188t135 136.5t188.5 50.5q81 0 151.5 -31t122.5 -87l-95 -89q-34 39 -80.5 62t-98.5 23q-68 0 -123.5 -35.5t-87.5 -94t-32 -123.5t32 -123.5t87.5 -94
t123.5 -35.5q80 0 142 49t88 124l-109 125h253v-22zM335.5 793q-23.5 23 -23.5 54q0 32 23.5 55t54.5 23q30 0 53.5 -23t23.5 -53q0 -32 -23 -55.5t-54 -23.5t-54.5 23z" />
    <glyph glyph-name="H" unicode="H" horiz-adv-x="753" 
d="M208 724v-299h337v299h130v-724h-130v307h-337v-307h-130v724h130z" />
    <glyph glyph-name="Hbar" unicode="&#x126;" horiz-adv-x="776" 
d="M755 488h-70v-488h-130v307h-337v-307h-130v488h-65v94h65v142h130v-142h337v142h130v-142h70v-94zM555 488h-337v-63h337v63z" />
    <glyph glyph-name="Hcircumflex" unicode="&#x124;" horiz-adv-x="753" 
d="M208 724v-299h337v299h130v-724h-130v307h-337v-307h-130v724h130zM437 781l-51 49l-51 -49h-131l182 162l182 -162h-131z" />
    <glyph glyph-name="I" unicode="I" horiz-adv-x="286" 
d="M208 724v-724h-130v724h130z" />
    <glyph glyph-name="Iacute" unicode="&#xcd;" horiz-adv-x="286" 
d="M208 724v-724h-130v724h130zM289 936h-131l-77 -154h120z" />
    <glyph glyph-name="Ibreve" unicode="&#x12c;" horiz-adv-x="286" 
d="M58.5 791q-38.5 21 -63 55.5t-27.5 71.5h89q6 -28 29.5 -49t54.5 -21q32 0 55 21t29 49h90q-4 -37 -28.5 -71.5t-63 -55.5t-82.5 -21t-82.5 21zM208 724v-724h-130v724h130z" />
    <glyph glyph-name="Icircumflex" unicode="&#xce;" horiz-adv-x="286" 
d="M208 724v-724h-130v724h130zM194 781l-51 49l-51 -49h-131l182 162l182 -162h-131z" />
    <glyph glyph-name="Idieresis" unicode="&#xcf;" horiz-adv-x="286" 
d="M208 724v-724h-130v724h130zM-20 792.5q-23 22.5 -23 54.5t23 55t55 23q31 0 54 -22.5t23 -53.5q0 -32 -22.5 -55.5t-54.5 -23.5t-55 22.5zM208 792.5q-23 22.5 -23 54.5t23 55t55 23q31 0 54 -22.5t23 -53.5q0 -32 -22.5 -55.5t-54.5 -23.5t-55 22.5z" />
    <glyph glyph-name="Idotaccent" unicode="&#x130;" horiz-adv-x="286" 
d="M87.5 793q-23.5 23 -23.5 54q0 32 23.5 55t54.5 23q30 0 53.5 -23t23.5 -53q0 -32 -23 -55.5t-54 -23.5t-54.5 23zM208 724v-724h-130v724h130z" />
    <glyph glyph-name="Igrave" unicode="&#xcc;" horiz-adv-x="286" 
d="M208 724v-724h-130v724h130zM0 924h131l77 -154h-120z" />
    <glyph glyph-name="Imacron" unicode="&#x12a;" horiz-adv-x="286" 
d="M320 872v-102h-346v102h346zM208 724v-724h-130v724h130z" />
    <glyph glyph-name="Iogonek" unicode="&#x12e;" horiz-adv-x="286" 
d="M223 -156q-39 -23 -93 -23q-49 0 -80.5 27t-31.5 64q0 53 53 88l7 5v719h130v-724l-42 -19q-54 -24 -54 -54q0 -28 33 -28q29 0 54 18z" />
    <glyph glyph-name="Itilde" unicode="&#x128;" horiz-adv-x="286" 
d="M168 809q-18 9 -40 25q-16 12 -26.5 18t-20.5 6q-16 0 -31.5 -15.5t-27.5 -40.5l-65 44q30 58 55.5 81.5t59.5 23.5q21 0 38.5 -9t40.5 -26q16 -12 26.5 -18t20.5 -6q16 0 31.5 16t27.5 41l65 -53q-30 -53 -55.5 -74.5t-59.5 -21.5q-21 0 -39 9zM208 724v-724h-130v724
h130z" />
    <glyph glyph-name="J" unicode="J" horiz-adv-x="587" 
d="M53 118q30 -58 85 -94t130 -36q76 0 132 37t86 101t30 144v455h-130v-450q0 -75 -28.5 -120t-89.5 -45q-59 0 -88.5 40.5t-29.5 92.5h-130q3 -67 33 -125z" />
    <glyph glyph-name="Jcircumflex" unicode="&#x134;" horiz-adv-x="587" 
d="M53 118q30 -58 85 -94t130 -36q76 0 132 37t86 101t30 144v455h-130v-450q0 -75 -28.5 -120t-89.5 -45q-59 0 -88.5 40.5t-29.5 92.5h-130q3 -67 33 -125zM499 781l-51 49l-51 -49h-131l182 162l182 -162h-131z" />
    <glyph glyph-name="K" unicode="K" horiz-adv-x="659" 
d="M672 0h-154l-196 300h-114v-300h-130v724h130v-399l269 399h152l-220 -323z" />
    <glyph glyph-name="uni0136" unicode="&#x136;" horiz-adv-x="659" 
d="M672 0h-154l-196 300h-114v-300h-130v724h130v-399l269 399h152l-220 -323zM272.435 -199.914v194.738h141.117l-64.6787 -194.738h-76.4385z" />
    <glyph glyph-name="L" unicode="L" horiz-adv-x="506" 
d="M208 724v-606h279v-118h-409v724h130z" />
    <glyph glyph-name="Lacute" unicode="&#x139;" horiz-adv-x="506" 
d="M208 724v-606h279v-118h-409v724h130zM291 936h-131l-77 -154h120z" />
    <glyph glyph-name="Lcaron" unicode="&#x13d;" horiz-adv-x="511" 
d="M208 724v-606h279v-118h-409v724h130zM432 724l-38 -234h-84v234h122z" />
    <glyph glyph-name="uni013B" unicode="&#x13b;" horiz-adv-x="506" 
d="M208 724v-606h279v-118h-409v724h130zM213.636 -199.914v194.738h141.117l-64.6787 -194.738h-76.4385z" />
    <glyph glyph-name="Ldot" unicode="&#x13f;" horiz-adv-x="524" 
d="M208 724v-606h279v-118h-409v724h130zM351.5 323q-23.5 23 -23.5 54q0 32 23.5 55t54.5 23q30 0 53.5 -23t23.5 -53q0 -32 -23 -55.5t-54 -23.5t-54.5 23z" />
    <glyph glyph-name="Lslash" unicode="&#x141;" horiz-adv-x="513" 
d="M494 118v-118h-409v213l-54 -25v121l54 25v390h130v-329l136 64v-121l-136 -64v-156h279z" />
    <glyph glyph-name="M" unicode="M" horiz-adv-x="888" 
d="M810 0h-130v443l-236 -240l-236 240v-443h-130v724h40l326 -343l326 343h40v-724z" />
    <glyph glyph-name="N" unicode="N" horiz-adv-x="770" 
d="M209 459l-1 -459h-130v736h40l443 -470l1 458h130v-736h-40z" />
    <glyph glyph-name="Nacute" unicode="&#x143;" horiz-adv-x="770" 
d="M209 459l-1 -459h-130v736h40l443 -470l1 458h130v-736h-40zM506 936h-131l-77 -154h120z" />
    <glyph glyph-name="Ncaron" unicode="&#x147;" horiz-adv-x="770" 
d="M209 459l-1 -459h-130v736h40l443 -470l1 458h130v-736h-40zM563 931l-182 -162l-182 162h131l51 -49l51 49h131z" />
    <glyph glyph-name="uni0145" unicode="&#x145;" horiz-adv-x="770" 
d="M209 459l-1 -459h-130v736h40l443 -470l1 458h130v-736h-40zM322.414 -199.914v194.738h141.117l-64.6797 -194.738h-76.4375z" />
    <glyph glyph-name="Eng" unicode="&#x14a;" horiz-adv-x="770" 
d="M692 724v-736q-4 -81 -38.5 -132t-93.5 -85l-75 88q40 31 58.5 62.5t18.5 85.5v77l-353 375l-1 -459h-130v736h40l443 -470l1 458h130z" />
    <glyph glyph-name="Ntilde" unicode="&#xd1;" horiz-adv-x="770" 
d="M209 459l-1 -459h-130v736h40l443 -470l1 458h130v-736h-40zM408 779q-18 9 -40 25q-16 12 -26.5 18t-20.5 6q-16 0 -31.5 -15.5t-27.5 -40.5l-65 44q30 58 55.5 81.5t59.5 23.5q21 0 38.5 -9t40.5 -26q16 -12 26.5 -18t20.5 -6q16 0 31.5 16t27.5 41l65 -53
q-30 -53 -55.5 -74.5t-59.5 -21.5q-21 0 -39 9z" />
    <glyph glyph-name="O" unicode="O" horiz-adv-x="820" 
d="M733.5 175q-49.5 -86 -135 -136.5t-188.5 -50.5t-188.5 50.5t-135 136.5t-49.5 188t49.5 188t135 136.5t188.5 50.5t188.5 -50.5t135 -136.5t49.5 -188t-49.5 -188zM198.5 238.5q31.5 -58.5 87 -93.5t124.5 -35q68 0 124 35.5t87.5 93.5t31.5 124t-31.5 124t-87.5 93.5
t-124 35.5q-69 0 -124.5 -35t-87 -93.5t-31.5 -124.5t31.5 -124.5z" />
    <glyph glyph-name="Oacute" unicode="&#xd3;" horiz-adv-x="820" 
d="M548 936h-131l-77 -154h120zM733.5 175q-49.5 -86 -135 -136.5t-188.5 -50.5t-188.5 50.5t-135 136.5t-49.5 188t49.5 188t135 136.5t188.5 50.5t188.5 -50.5t135 -136.5t49.5 -188t-49.5 -188zM198.5 238.5q31.5 -58.5 87 -93.5t124.5 -35q68 0 124 35.5t87.5 93.5
t31.5 124t-31.5 124t-87.5 93.5t-124 35.5q-69 0 -124.5 -35t-87 -93.5t-31.5 -124.5t31.5 -124.5z" />
    <glyph glyph-name="Obreve" unicode="&#x14e;" horiz-adv-x="820" 
d="M733.5 175q-49.5 -86 -135 -136.5t-188.5 -50.5t-188.5 50.5t-135 136.5t-49.5 188t49.5 188t135 136.5t188.5 50.5t188.5 -50.5t135 -136.5t49.5 -188t-49.5 -188zM198.5 238.5q31.5 -58.5 87 -93.5t124.5 -35q68 0 124 35.5t87.5 93.5t31.5 124t-31.5 124t-87.5 93.5
t-124 35.5q-69 0 -124.5 -35t-87 -93.5t-31.5 -124.5t31.5 -124.5zM327.5 791q-38.5 21 -63 55.5t-27.5 71.5h89q6 -28 29.5 -49t54.5 -21q32 0 55 21t29 49h90q-4 -37 -28.5 -71.5t-63 -55.5t-82.5 -21t-82.5 21z" />
    <glyph glyph-name="Ocircumflex" unicode="&#xd4;" horiz-adv-x="820" 
d="M733.5 175q-49.5 -86 -135 -136.5t-188.5 -50.5t-188.5 50.5t-135 136.5t-49.5 188t49.5 188t135 136.5t188.5 50.5t188.5 -50.5t135 -136.5t49.5 -188t-49.5 -188zM198.5 238.5q31.5 -58.5 87 -93.5t124.5 -35q68 0 124 35.5t87.5 93.5t31.5 124t-31.5 124t-87.5 93.5
t-124 35.5q-69 0 -124.5 -35t-87 -93.5t-31.5 -124.5t31.5 -124.5zM461 781l-51 49l-51 -49h-131l182 162l182 -162h-131z" />
    <glyph glyph-name="Odieresis" unicode="&#xd6;" horiz-adv-x="820" 
d="M733.5 175q-49.5 -86 -135 -136.5t-188.5 -50.5t-188.5 50.5t-135 136.5t-49.5 188t49.5 188t135 136.5t188.5 50.5t188.5 -50.5t135 -136.5t49.5 -188t-49.5 -188zM198.5 238.5q31.5 -58.5 87 -93.5t124.5 -35q68 0 124 35.5t87.5 93.5t31.5 124t-31.5 124t-87.5 93.5
t-124 35.5q-69 0 -124.5 -35t-87 -93.5t-31.5 -124.5t31.5 -124.5zM241 792.5q-23 22.5 -23 54.5t23 55t55 23q31 0 54 -22.5t23 -53.5q0 -32 -22.5 -55.5t-54.5 -23.5t-55 22.5zM469 792.5q-23 22.5 -23 54.5t23 55t55 23q31 0 54 -22.5t23 -53.5q0 -32 -22.5 -55.5
t-54.5 -23.5t-55 22.5z" />
    <glyph glyph-name="Ograve" unicode="&#xd2;" horiz-adv-x="820" 
d="M733.5 175q-49.5 -86 -135 -136.5t-188.5 -50.5t-188.5 50.5t-135 136.5t-49.5 188t49.5 188t135 136.5t188.5 50.5t188.5 -50.5t135 -136.5t49.5 -188t-49.5 -188zM198.5 238.5q31.5 -58.5 87 -93.5t124.5 -35q68 0 124 35.5t87.5 93.5t31.5 124t-31.5 124t-87.5 93.5
t-124 35.5q-69 0 -124.5 -35t-87 -93.5t-31.5 -124.5t31.5 -124.5zM260 924h131l77 -154h-120z" />
    <glyph glyph-name="Ohungarumlaut" unicode="&#x150;" horiz-adv-x="820" 
d="M733.5 175q-49.5 -86 -135 -136.5t-188.5 -50.5t-188.5 50.5t-135 136.5t-49.5 188t49.5 188t135 136.5t188.5 50.5t188.5 -50.5t135 -136.5t49.5 -188t-49.5 -188zM198.5 238.5q31.5 -58.5 87 -93.5t124.5 -35q68 0 124 35.5t87.5 93.5t31.5 124t-31.5 124t-87.5 93.5
t-124 35.5q-69 0 -124.5 -35t-87 -93.5t-31.5 -124.5t31.5 -124.5zM444 924h-131l-77 -154h120zM662 924h-131l-77 -154h120z" />
    <glyph glyph-name="Omacron" unicode="&#x14c;" horiz-adv-x="820" 
d="M733.5 175q-49.5 -86 -135 -136.5t-188.5 -50.5t-188.5 50.5t-135 136.5t-49.5 188t49.5 188t135 136.5t188.5 50.5t188.5 -50.5t135 -136.5t49.5 -188t-49.5 -188zM198.5 238.5q31.5 -58.5 87 -93.5t124.5 -35q68 0 124 35.5t87.5 93.5t31.5 124t-31.5 124t-87.5 93.5
t-124 35.5q-69 0 -124.5 -35t-87 -93.5t-31.5 -124.5t31.5 -124.5zM583 872v-102h-346v102h346z" />
    <glyph glyph-name="Oslash" unicode="&#xd8;" horiz-adv-x="820" 
d="M744.5 530q38.5 -78 38.5 -167q0 -102 -49.5 -188t-135 -136.5t-188.5 -50.5q-63 0 -121 20l-21 -39h-145v3l53 98q-65 52 -102 129t-37 164q0 102 49.5 188t135 136.5t188.5 50.5q62 0 116 -18l27 50h144l-59 -109q68 -53 106.5 -131zM185.5 266.5
q18.5 -46.5 52.5 -81.5l228 424q-25 7 -56 7q-69 0 -124.5 -35t-87 -93.5t-31.5 -124.5q0 -50 18.5 -96.5zM534 145.5q56 35.5 87.5 93.5t31.5 124q0 52 -20 100t-56 83l-229 -428q30 -8 62 -8q68 0 124 35.5z" />
    <glyph glyph-name="Otilde" unicode="&#xd5;" horiz-adv-x="820" 
d="M733.5 175q-49.5 -86 -135 -136.5t-188.5 -50.5t-188.5 50.5t-135 136.5t-49.5 188t49.5 188t135 136.5t188.5 50.5t188.5 -50.5t135 -136.5t49.5 -188t-49.5 -188zM198.5 238.5q31.5 -58.5 87 -93.5t124.5 -35q68 0 124 35.5t87.5 93.5t31.5 124t-31.5 124t-87.5 93.5
t-124 35.5q-69 0 -124.5 -35t-87 -93.5t-31.5 -124.5t31.5 -124.5zM439 779q-18 9 -40 25q-16 12 -26.5 18t-20.5 6q-16 0 -31.5 -15.5t-27.5 -40.5l-65 44q30 58 55.5 81.5t59.5 23.5q21 0 38.5 -9t40.5 -26q16 -12 26.5 -18t20.5 -6q16 0 31.5 16t27.5 41l65 -53
q-30 -53 -55.5 -74.5t-59.5 -21.5q-21 0 -39 9z" />
    <glyph glyph-name="OE" unicode="&#x152;" horiz-adv-x="991" 
d="M621 606v-201h298v-118h-298v-169h318v-118h-433q-47 -12 -96 -12q-103 0 -188.5 50.5t-135 136.5t-49.5 188t49.5 188t135 136.5t188.5 50.5q53 0 103 -14h426v-118h-318zM198.5 238.5q31.5 -58.5 87 -93.5t124.5 -35q42 0 81 14v478q-39 14 -81 14q-69 0 -124.5 -35
t-87 -93.5t-31.5 -124.5t31.5 -124.5z" />
    <glyph glyph-name="P" unicode="P" horiz-adv-x="631" 
d="M351 724q74 0 131.5 -29.5t89.5 -84.5t32 -128t-32 -128.5t-89.5 -85.5t-131.5 -30h-143v-238h-130v724h273zM434.5 391q35.5 35 35.5 91q0 55 -35.5 89.5t-99.5 34.5h-127v-250h127q64 0 99.5 35z" />
    <glyph glyph-name="Thorn" unicode="&#xde;" horiz-adv-x="608" 
d="M208 724v-166h126q64 0 119.5 -24t89.5 -72t34 -117t-34 -117t-89.5 -72t-119.5 -24h-126v-132h-130v724h130zM208 246h109q50 0 88 24.5t38 74.5t-38 74.5t-88 24.5h-109v-198z" />
    <glyph glyph-name="Q" unicode="Q" horiz-adv-x="820" 
d="M754 217q-29 -69 -81 -121v-108h-286l1 1q-98 5 -178.5 56.5t-126.5 135.5t-46 182q0 102 49.5 188t135 136.5t188.5 50.5t188.5 -50.5t135 -136.5t49.5 -188q0 -77 -29 -146zM198.5 238.5q31.5 -58.5 87 -93.5t124.5 -35q68 0 124 35.5t87.5 93.5t31.5 124t-31.5 124
t-87.5 93.5t-124 35.5q-69 0 -124.5 -35t-87 -93.5t-31.5 -124.5t31.5 -124.5z" />
    <glyph glyph-name="R" unicode="R" horiz-adv-x="661" 
d="M500 0l-197 301l-95 1v-302h-130v724h280q110 0 179.5 -53t69.5 -156q0 -78 -45.5 -130t-117.5 -72l207 -313h-151zM208 415h134q61 0 96 25.5t35 74.5q0 91 -131 91h-134v-191z" />
    <glyph glyph-name="Racute" unicode="&#x154;" horiz-adv-x="661" 
d="M500 0l-197 301l-95 1v-302h-130v724h280q110 0 179.5 -53t69.5 -156q0 -78 -45.5 -130t-117.5 -72l207 -313h-151zM208 415h134q61 0 96 25.5t35 74.5q0 91 -131 91h-134v-191zM461 936h-131l-77 -154h120z" />
    <glyph glyph-name="Rcaron" unicode="&#x158;" horiz-adv-x="661" 
d="M500 0l-197 301l-95 1v-302h-130v724h280q110 0 179.5 -53t69.5 -156q0 -78 -45.5 -130t-117.5 -72l207 -313h-151zM208 415h134q61 0 96 25.5t35 74.5q0 91 -131 91h-134v-191zM500 931l-182 -162l-182 162h131l51 -49l51 49h131z" />
    <glyph glyph-name="uni0156" unicode="&#x156;" horiz-adv-x="661" 
d="M500 0l-197 301l-95 1v-302h-130v724h280q110 0 179.5 -53t69.5 -156q0 -78 -45.5 -130t-117.5 -72l207 -313h-151zM208 415h134q61 0 96 25.5t35 74.5q0 91 -131 91h-134v-191zM261.654 -199.914v194.738h141.117l-64.6777 -194.738h-76.4395z" />
    <glyph glyph-name="S" unicode="S" horiz-adv-x="552" 
d="M323.5 600.5q-28.5 15.5 -60.5 15.5q-30 0 -50.5 -20t-20.5 -48q0 -23 16 -42t48 -30l61 -22q203 -74 203 -236q0 -69 -33.5 -121t-92.5 -80.5t-133 -28.5q-93 0 -156 44.5t-88 102.5l103 75q21 -47 60 -73.5t92 -26.5t85.5 30t32.5 79q0 78 -107 115l-64 23
q-76 27 -116 75.5t-40 119.5q0 47 27 89.5t73 68.5t100 26q72 0 123 -29t82 -73l-97 -76q-19 27 -47.5 42.5z" />
    <glyph glyph-name="Sacute" unicode="&#x15a;" horiz-adv-x="552" 
d="M323.5 600.5q-28.5 15.5 -60.5 15.5q-30 0 -50.5 -20t-20.5 -48q0 -23 16 -42t48 -30l61 -22q203 -74 203 -236q0 -69 -33.5 -121t-92.5 -80.5t-133 -28.5q-93 0 -156 44.5t-88 102.5l103 75q21 -47 60 -73.5t92 -26.5t85.5 30t32.5 79q0 78 -107 115l-64 23
q-76 27 -116 75.5t-40 119.5q0 47 27 89.5t73 68.5t100 26q72 0 123 -29t82 -73l-97 -76q-19 27 -47.5 42.5zM415 936h-131l-77 -154h120z" />
    <glyph glyph-name="Scaron" unicode="&#x160;" horiz-adv-x="552" 
d="M323.5 600.5q-28.5 15.5 -60.5 15.5q-30 0 -50.5 -20t-20.5 -48q0 -23 16 -42t48 -30l61 -22q203 -74 203 -236q0 -69 -33.5 -121t-92.5 -80.5t-133 -28.5q-93 0 -156 44.5t-88 102.5l103 75q21 -47 60 -73.5t92 -26.5t85.5 30t32.5 79q0 78 -107 115l-64 23
q-76 27 -116 75.5t-40 119.5q0 47 27 89.5t73 68.5t100 26q72 0 123 -29t82 -73l-97 -76q-19 27 -47.5 42.5zM453 931l-182 -162l-182 162h131l51 -49l51 49h131z" />
    <glyph glyph-name="Scedilla" unicode="&#x15e;" horiz-adv-x="552" 
d="M323.5 600.5q-28.5 15.5 -60.5 15.5q-30 0 -50.5 -20t-20.5 -48q0 -23 16 -42t48 -30l61 -22q203 -74 203 -236q0 -69 -33.5 -121t-92.5 -80.5t-133 -28.5q-93 0 -156 44.5t-88 102.5l103 75q21 -47 60 -73.5t92 -26.5t85.5 30t32.5 79q0 78 -107 115l-64 23
q-76 27 -116 75.5t-40 119.5q0 47 27 89.5t73 68.5t100 26q72 0 123 -29t82 -73l-97 -76q-19 27 -47.5 42.5zM353 -51q22 -20 22 -46q0 -34 -29.5 -58t-70.5 -24q-47 0 -95 10l11 64q14 -5 34.5 -9t33.5 -4q11 0 18 5.5t7 15.5q0 14 -22.5 23t-68.5 10l43 127h86l-32 -95
l2 1q39 0 61 -20z" />
    <glyph glyph-name="Scircumflex" unicode="&#x15c;" horiz-adv-x="552" 
d="M323.5 600.5q-28.5 15.5 -60.5 15.5q-30 0 -50.5 -20t-20.5 -48q0 -23 16 -42t48 -30l61 -22q203 -74 203 -236q0 -69 -33.5 -121t-92.5 -80.5t-133 -28.5q-93 0 -156 44.5t-88 102.5l103 75q21 -47 60 -73.5t92 -26.5t85.5 30t32.5 79q0 78 -107 115l-64 23
q-76 27 -116 75.5t-40 119.5q0 47 27 89.5t73 68.5t100 26q72 0 123 -29t82 -73l-97 -76q-19 27 -47.5 42.5zM331 781l-51 49l-51 -49h-131l182 162l182 -162h-131z" />
    <glyph glyph-name="uni0218" unicode="&#x218;" horiz-adv-x="552" 
d="M323.5 600.5q-28.5 15.5 -60.5 15.5q-30 0 -50.5 -20t-20.5 -48q0 -23 16 -42t48 -30l61 -22q203 -74 203 -236q0 -69 -33.5 -121t-92.5 -80.5t-133 -28.5q-93 0 -156 44.5t-88 102.5l103 75q21 -47 60 -73.5t92 -26.5t85.5 30t32.5 79q0 78 -107 115l-64 23
q-76 27 -116 75.5t-40 119.5q0 47 27 89.5t73 68.5t100 26q72 0 123 -29t82 -73l-97 -76q-19 27 -47.5 42.5zM203.836 -199.914v194.738h141.117l-64.6787 -194.738h-76.4385z" />
    <glyph glyph-name="uni1E9E" unicode="&#x1e9e;" horiz-adv-x="722" 
d="M403 110q73 0 114 39.5t41 96.5q0 37 -21 69t-58.5 51t-85.5 19q-37 0 -74 -8l76 229h-187v-606h-130v724h495l-92 -249q90 -12 148.5 -69t58.5 -154q0 -77 -36.5 -137t-101 -93.5t-147.5 -33.5q-74 0 -133 24l41 115q43 -17 92 -17z" />
    <glyph glyph-name="T" unicode="T" horiz-adv-x="540" 
d="M18 606v118h504v-118h-187v-606h-130v606h-187z" />
    <glyph glyph-name="Tbar" unicode="&#x166;" horiz-adv-x="564" 
d="M347 606v-223h123v-111h-123v-272h-130v272h-121v111h121v223h-187v118h504v-118h-187z" />
    <glyph glyph-name="Tcaron" unicode="&#x164;" horiz-adv-x="540" 
d="M18 606v118h504v-118h-187v-606h-130v606h-187zM449 931l-182 -162l-182 162h131l51 -49l51 49h131z" />
    <glyph glyph-name="U" unicode="U" horiz-adv-x="715" 
d="M201.5 30q-65.5 42 -99 115t-33.5 163v417h130v-406q0 -94 40.5 -151.5t118.5 -57.5q77 0 117.5 57.5t40.5 151.5v406h130v-417q0 -90 -33.5 -163t-98.5 -115t-156 -42t-156.5 42z" />
    <glyph glyph-name="Uacute" unicode="&#xda;" horiz-adv-x="715" 
d="M201.5 30q-65.5 42 -99 115t-33.5 163v417h130v-406q0 -94 40.5 -151.5t118.5 -57.5q77 0 117.5 57.5t40.5 151.5v406h130v-417q0 -90 -33.5 -163t-98.5 -115t-156 -42t-156.5 42zM505 936h-131l-77 -154h120z" />
    <glyph glyph-name="Ubreve" unicode="&#x16c;" horiz-adv-x="715" 
d="M201.5 30q-65.5 42 -99 115t-33.5 163v417h130v-406q0 -94 40.5 -151.5t118.5 -57.5q77 0 117.5 57.5t40.5 151.5v406h130v-417q0 -90 -33.5 -163t-98.5 -115t-156 -42t-156.5 42zM269.5 791q-38.5 21 -63 55.5t-27.5 71.5h89q6 -28 29.5 -49t54.5 -21q32 0 55 21t29 49
h90q-4 -37 -28.5 -71.5t-63 -55.5t-82.5 -21t-82.5 21z" />
    <glyph glyph-name="Ucircumflex" unicode="&#xdb;" horiz-adv-x="715" 
d="M201.5 30q-65.5 42 -99 115t-33.5 163v417h130v-406q0 -94 40.5 -151.5t118.5 -57.5q77 0 117.5 57.5t40.5 151.5v406h130v-417q0 -90 -33.5 -163t-98.5 -115t-156 -42t-156.5 42zM406 781l-51 49l-51 -49h-131l182 162l182 -162h-131z" />
    <glyph glyph-name="Udieresis" unicode="&#xdc;" horiz-adv-x="715" 
d="M201.5 30q-65.5 42 -99 115t-33.5 163v417h130v-406q0 -94 40.5 -151.5t118.5 -57.5q77 0 117.5 57.5t40.5 151.5v406h130v-417q0 -90 -33.5 -163t-98.5 -115t-156 -42t-156.5 42zM186 792.5q-23 22.5 -23 54.5t23 55t55 23q31 0 54 -22.5t23 -53.5q0 -32 -22.5 -55.5
t-54.5 -23.5t-55 22.5zM414 792.5q-23 22.5 -23 54.5t23 55t55 23q31 0 54 -22.5t23 -53.5q0 -32 -22.5 -55.5t-54.5 -23.5t-55 22.5z" />
    <glyph glyph-name="Ugrave" unicode="&#xd9;" horiz-adv-x="715" 
d="M201.5 30q-65.5 42 -99 115t-33.5 163v417h130v-406q0 -94 40.5 -151.5t118.5 -57.5q77 0 117.5 57.5t40.5 151.5v406h130v-417q0 -90 -33.5 -163t-98.5 -115t-156 -42t-156.5 42zM224 924h131l77 -154h-120z" />
    <glyph glyph-name="Uhungarumlaut" unicode="&#x170;" horiz-adv-x="715" 
d="M201.5 30q-65.5 42 -99 115t-33.5 163v417h130v-406q0 -94 40.5 -151.5t118.5 -57.5q77 0 117.5 57.5t40.5 151.5v406h130v-417q0 -90 -33.5 -163t-98.5 -115t-156 -42t-156.5 42zM400 924h-131l-77 -154h120zM618 924h-131l-77 -154h120z" />
    <glyph glyph-name="Umacron" unicode="&#x16a;" horiz-adv-x="715" 
d="M201.5 30q-65.5 42 -99 115t-33.5 163v417h130v-406q0 -94 40.5 -151.5t118.5 -57.5q77 0 117.5 57.5t40.5 151.5v406h130v-417q0 -90 -33.5 -163t-98.5 -115t-156 -42t-156.5 42zM530 872v-102h-346v102h346z" />
    <glyph glyph-name="Uogonek" unicode="&#x172;" horiz-adv-x="715" 
d="M646 725v-417q0 -82 -28 -150.5t-81 -110.5l-69 -63q-26 -24 -34.5 -35t-8.5 -24q0 -26 36 -26q29 0 54 18l24 -73q-39 -23 -93 -23q-51 0 -83 27t-32 64q0 40 43 76h-16q-91 0 -156.5 42t-99 115t-33.5 163v417h130v-406q0 -94 40.5 -151.5t118.5 -57.5q77 0 117.5 57.5
t40.5 151.5v406h130z" />
    <glyph glyph-name="Uring" unicode="&#x16e;" horiz-adv-x="715" 
d="M201.5 30q-65.5 42 -99 115t-33.5 163v417h130v-406q0 -94 40.5 -151.5t118.5 -57.5q77 0 117.5 57.5t40.5 151.5v406h130v-417q0 -90 -33.5 -163t-98.5 -115t-156 -42t-156.5 42zM279 802q-34 32 -34 77t34 77t81 32q46 0 80 -32t34 -77t-34 -77t-80 -32q-47 0 -81 32z
M392.5 847.5q13.5 12.5 13.5 31.5t-13.5 31.5t-32.5 12.5t-32.5 -12.5t-13.5 -31.5t13.5 -31.5t32.5 -12.5t32.5 12.5z" />
    <glyph glyph-name="Utilde" unicode="&#x168;" horiz-adv-x="715" 
d="M201.5 30q-65.5 42 -99 115t-33.5 163v417h130v-406q0 -94 40.5 -151.5t118.5 -57.5q77 0 117.5 57.5t40.5 151.5v406h130v-417q0 -90 -33.5 -163t-98.5 -115t-156 -42t-156.5 42zM392 779q-18 9 -40 25q-16 12 -26.5 18t-20.5 6q-16 0 -31.5 -15.5t-27.5 -40.5l-65 44
q30 58 55.5 81.5t59.5 23.5q21 0 38.5 -9t40.5 -26q16 -12 26.5 -18t20.5 -6q16 0 31.5 16t27.5 41l65 -53q-30 -53 -55.5 -74.5t-59.5 -21.5q-21 0 -39 9z" />
    <glyph glyph-name="V" unicode="V" horiz-adv-x="676" 
d="M4 724h137l197 -482l197 482h137l-314 -736h-40z" />
    <glyph glyph-name="W" unicode="W" horiz-adv-x="1048" 
d="M544 736l183 -461l175 449h141l-292 -736h-40l-187 478l-187 -478h-40l-292 736h141l175 -449l183 461h40z" />
    <glyph glyph-name="Wacute" unicode="&#x1e82;" horiz-adv-x="1048" 
d="M544 736l183 -461l175 449h141l-292 -736h-40l-187 478l-187 -478h-40l-292 736h141l175 -449l183 461h40zM666 936h-131l-77 -154h120z" />
    <glyph glyph-name="Wcircumflex" unicode="&#x174;" horiz-adv-x="1048" 
d="M544 736l183 -461l175 449h141l-292 -736h-40l-187 478l-187 -478h-40l-292 736h141l175 -449l183 461h40zM575 781l-51 49l-51 -49h-131l182 162l182 -162h-131z" />
    <glyph glyph-name="Wdieresis" unicode="&#x1e84;" horiz-adv-x="1048" 
d="M544 736l183 -461l175 449h141l-292 -736h-40l-187 478l-187 -478h-40l-292 736h141l175 -449l183 461h40zM361 792.5q-23 22.5 -23 54.5t23 55t55 23q31 0 54 -22.5t23 -53.5q0 -32 -22.5 -55.5t-54.5 -23.5t-55 22.5zM589 792.5q-23 22.5 -23 54.5t23 55t55 23
q31 0 54 -22.5t23 -53.5q0 -32 -22.5 -55.5t-54.5 -23.5t-55 22.5z" />
    <glyph glyph-name="Wgrave" unicode="&#x1e80;" horiz-adv-x="1048" 
d="M544 736l183 -461l175 449h141l-292 -736h-40l-187 478l-187 -478h-40l-292 736h141l175 -449l183 461h40zM377 924h131l77 -154h-120z" />
    <glyph glyph-name="X" unicode="X" horiz-adv-x="660" 
d="M20 724h155l155 -243l155 243h155l-224 -343l252 -381h-155l-183 281l-183 -281h-155l252 381z" />
    <glyph glyph-name="Y" unicode="Y" horiz-adv-x="656" 
d="M8 724h152l168 -345l168 345h152l-255 -493v-231h-130v231z" />
    <glyph glyph-name="Yacute" unicode="&#xdd;" horiz-adv-x="656" 
d="M8 724h152l168 -345l168 345h152l-255 -493v-231h-130v231zM469 936h-131l-77 -154h120z" />
    <glyph glyph-name="Ycircumflex" unicode="&#x176;" horiz-adv-x="656" 
d="M8 724h152l168 -345l168 345h152l-255 -493v-231h-130v231zM379 781l-51 49l-51 -49h-131l182 162l182 -162h-131z" />
    <glyph glyph-name="Ydieresis" unicode="&#x178;" horiz-adv-x="656" 
d="M8 724h152l168 -345l168 345h152l-255 -493v-231h-130v231zM159 792.5q-23 22.5 -23 54.5t23 55t55 23q31 0 54 -22.5t23 -53.5q0 -32 -22.5 -55.5t-54.5 -23.5t-55 22.5zM387 792.5q-23 22.5 -23 54.5t23 55t55 23q31 0 54 -22.5t23 -53.5q0 -32 -22.5 -55.5
t-54.5 -23.5t-55 22.5z" />
    <glyph glyph-name="Ygrave" unicode="&#x1ef2;" horiz-adv-x="656" 
d="M8 724h152l168 -345l168 345h152l-255 -493v-231h-130v231zM196 924h131l77 -154h-120z" />
    <glyph glyph-name="Z" unicode="Z" horiz-adv-x="558" 
d="M44 606v118h496l-323 -605l310 -1v-118h-519l325 606h-289z" />
    <glyph glyph-name="Zacute" unicode="&#x179;" horiz-adv-x="558" 
d="M44 606v118h496l-323 -605l310 -1v-118h-519l325 606h-289zM431 936h-131l-77 -154h120z" />
    <glyph glyph-name="Zcaron" unicode="&#x17d;" horiz-adv-x="558" 
d="M44 606v118h496l-323 -605l310 -1v-118h-519l325 606h-289zM467 931l-182 -162l-182 162h131l51 -49l51 49h131z" />
    <glyph glyph-name="Zdotaccent" unicode="&#x17b;" horiz-adv-x="558" 
d="M44 606v118h496l-323 -605l310 -1v-118h-519l325 606h-289zM231.5 793q-23.5 23 -23.5 54q0 32 23.5 55t54.5 23q30 0 53.5 -23t23.5 -53q0 -32 -23 -55.5t-54 -23.5t-54.5 23z" />
    <glyph glyph-name="uni0162" unicode="&#x162;" horiz-adv-x="540" 
d="M18 606v118h504v-118h-187v-606h-130v606h-187zM200.896 -199.914v194.738h141.117l-64.6797 -194.738h-76.4375z" />
    <glyph glyph-name="uni021A" unicode="&#x21a;" horiz-adv-x="540" 
d="M18 606v118h504v-118h-187v-606h-130v606h-187zM200.896 -199.914v194.738h141.117l-64.6797 -194.738h-76.4375z" />
    <glyph glyph-name="a" unicode="a" horiz-adv-x="624" 
d="M368 4q-40 -16 -88 -16q-67 0 -123.5 32.5t-90 93.5t-33.5 143t33.5 143.5t90 94t123.5 32.5q48 0 88 -16.5t69 -45.5v50h124v-515h-124v49q-29 -29 -69 -45zM199 372q-40 -42 -40 -115q0 -72 40 -114t103 -42q38 0 69.5 18.5t50 54t18.5 83.5t-18.5 84t-50 54.5
t-69.5 18.5q-63 0 -103 -42z" />
    <glyph glyph-name="aacute" unicode="&#xe1;" horiz-adv-x="624" 
d="M368 4q-40 -16 -88 -16q-67 0 -123.5 32.5t-90 93.5t-33.5 143t33.5 143.5t90 94t123.5 32.5q48 0 88 -16.5t69 -45.5v50h124v-515h-124v49q-29 -29 -69 -45zM199 372q-40 -42 -40 -115q0 -72 40 -114t103 -42q38 0 69.5 18.5t50 54t18.5 83.5t-18.5 84t-50 54.5
t-69.5 18.5q-63 0 -103 -42zM247 582l77 154h131l-88 -154h-120z" />
    <glyph glyph-name="abreve" unicode="&#x103;" horiz-adv-x="624" 
d="M230.5 597q-38.5 21 -63 55.5t-27.5 71.5h89q6 -28 29.5 -49t54.5 -21q32 0 55 21t29 49h90q-4 -37 -28.5 -71.5t-63 -55.5t-82.5 -21t-82.5 21zM368 4q-40 -16 -88 -16q-67 0 -123.5 32.5t-90 93.5t-33.5 143t33.5 143.5t90 94t123.5 32.5q48 0 88 -16.5t69 -45.5v50
h124v-515h-124v49q-29 -29 -69 -45zM199 372q-40 -42 -40 -115q0 -72 40 -114t103 -42q38 0 69.5 18.5t50 54t18.5 83.5t-18.5 84t-50 54.5t-69.5 18.5q-63 0 -103 -42z" />
    <glyph glyph-name="acircumflex" unicode="&#xe2;" horiz-adv-x="624" 
d="M368 4q-40 -16 -88 -16q-67 0 -123.5 32.5t-90 93.5t-33.5 143t33.5 143.5t90 94t123.5 32.5q48 0 88 -16.5t69 -45.5v50h124v-515h-124v49q-29 -29 -69 -45zM199 372q-40 -42 -40 -115q0 -72 40 -114t103 -42q38 0 69.5 18.5t50 54t18.5 83.5t-18.5 84t-50 54.5
t-69.5 18.5q-63 0 -103 -42zM362 584l-51 49l-51 -49h-131l182 162l182 -162h-131z" />
    <glyph glyph-name="adieresis" unicode="&#xe4;" horiz-adv-x="624" 
d="M368 4q-40 -16 -88 -16q-67 0 -123.5 32.5t-90 93.5t-33.5 143t33.5 143.5t90 94t123.5 32.5q48 0 88 -16.5t69 -45.5v50h124v-515h-124v49q-29 -29 -69 -45zM199 372q-40 -42 -40 -115q0 -72 40 -114t103 -42q38 0 69.5 18.5t50 54t18.5 83.5t-18.5 84t-50 54.5
t-69.5 18.5q-63 0 -103 -42zM142 603.5q-23 22.5 -23 54.5t23 55t55 23q31 0 54 -22.5t23 -53.5q0 -32 -22.5 -55.5t-54.5 -23.5t-55 22.5zM370 603.5q-23 22.5 -23 54.5t23 55t55 23q31 0 54 -22.5t23 -53.5q0 -32 -22.5 -55.5t-54.5 -23.5t-55 22.5z" />
    <glyph glyph-name="agrave" unicode="&#xe0;" horiz-adv-x="624" 
d="M368 4q-40 -16 -88 -16q-67 0 -123.5 32.5t-90 93.5t-33.5 143t33.5 143.5t90 94t123.5 32.5q48 0 88 -16.5t69 -45.5v50h124v-515h-124v49q-29 -29 -69 -45zM199 372q-40 -42 -40 -115q0 -72 40 -114t103 -42q38 0 69.5 18.5t50 54t18.5 83.5t-18.5 84t-50 54.5
t-69.5 18.5q-63 0 -103 -42zM169 736h131l77 -154h-120z" />
    <glyph glyph-name="amacron" unicode="&#x101;" horiz-adv-x="624" 
d="M483 711v-102h-346v102h346zM368 4q-40 -16 -88 -16q-67 0 -123.5 32.5t-90 93.5t-33.5 143t33.5 143.5t90 94t123.5 32.5q48 0 88 -16.5t69 -45.5v50h124v-515h-124v49q-29 -29 -69 -45zM199 372q-40 -42 -40 -115q0 -72 40 -114t103 -42q38 0 69.5 18.5t50 54
t18.5 83.5t-18.5 84t-50 54.5t-69.5 18.5q-63 0 -103 -42z" />
    <glyph glyph-name="aogonek" unicode="&#x105;" horiz-adv-x="624" 
d="M368 4q-40 -16 -88 -16q-67 0 -123.5 32.5t-90 93.5t-33.5 143t33.5 143.5t90 94t123.5 32.5q48 0 88 -16.5t69 -45.5v50h124v-515h-124v49q-29 -29 -69 -45zM199 372q-40 -42 -40 -115q0 -72 40 -114t103 -42q38 0 69.5 18.5t50 54t18.5 83.5t-18.5 84t-50 54.5
t-69.5 18.5q-63 0 -103 -42zM402.5 -152q-31.5 27 -31.5 64q0 53 53 88l54 35l83 -35l-42 -19q-54 -24 -54 -54q0 -28 33 -28q28 0 54 18l24 -73q-39 -23 -93 -23q-49 0 -80.5 27z" />
    <glyph glyph-name="aring" unicode="&#xe5;" horiz-adv-x="624" 
d="M368 4q-40 -16 -88 -16q-67 0 -123.5 32.5t-90 93.5t-33.5 143t33.5 143.5t90 94t123.5 32.5q48 0 88 -16.5t69 -45.5v50h124v-515h-124v49q-29 -29 -69 -45zM199 372q-40 -42 -40 -115q0 -72 40 -114t103 -42q38 0 69.5 18.5t50 54t18.5 83.5t-18.5 84t-50 54.5
t-69.5 18.5q-63 0 -103 -42zM230 596q-34 32 -34 77t34 77t81 32q46 0 80 -32t34 -77t-34 -77t-80 -32q-47 0 -81 32zM343.5 641.5q13.5 12.5 13.5 31.5t-13.5 31.5t-32.5 12.5t-32.5 -12.5t-13.5 -31.5t13.5 -31.5t32.5 -12.5t32.5 12.5z" />
    <glyph glyph-name="atilde" unicode="&#xe3;" horiz-adv-x="624" 
d="M368 4q-40 -16 -88 -16q-67 0 -123.5 32.5t-90 93.5t-33.5 143t33.5 143.5t90 94t123.5 32.5q48 0 88 -16.5t69 -45.5v50h124v-515h-124v49q-29 -29 -69 -45zM199 372q-40 -42 -40 -115q0 -72 40 -114t103 -42q38 0 69.5 18.5t50 54t18.5 83.5t-18.5 84t-50 54.5
t-69.5 18.5q-63 0 -103 -42zM337 591q-18 9 -40 25q-16 12 -26.5 18t-20.5 6q-16 0 -31.5 -15.5t-27.5 -40.5l-65 44q30 58 55.5 81.5t59.5 23.5q21 0 38.5 -9t40.5 -26q16 -12 26.5 -18t20.5 -6q16 0 31.5 16t27.5 41l65 -53q-30 -53 -55.5 -74.5t-59.5 -21.5q-21 0 -39 9z
" />
    <glyph glyph-name="ae" unicode="&#xe6;" horiz-adv-x="886" 
d="M518.5 7.5q-52.5 19.5 -86.5 54.5q-85 -74 -209 -74q-56 0 -101 20.5t-70 57t-25 82.5q0 81 56.5 125.5t167.5 44.5h109q-6 43 -33.5 69.5t-82.5 26.5q-80 0 -142 -57l-51 98q44 35 90 53.5t108 18.5q61 0 106.5 -20.5t72.5 -56.5q34 37 82 57t106 20q69 0 122 -32.5
t82 -88.5t29 -124q0 -31 -7 -68h-357q10 -55 47.5 -86t102.5 -31q42 0 82 20t64 47l68 -93q-37 -39 -94 -61t-120 -22q-64 0 -116.5 19.5zM689.5 392.5q-28.5 26.5 -73.5 26.5q-49 0 -82 -25.5t-46 -75.5h235q-5 48 -33.5 74.5zM363 214h-100q-111 0 -111 -59
q0 -24 23.5 -41t63.5 -17q76 0 138 58q-9 23 -14 59z" />
    <glyph glyph-name="b" unicode="b" horiz-adv-x="632" 
d="M63 0v770h127v-305q28 30 69 46t92 16q70 0 126.5 -33.5t89 -95t32.5 -141.5t-32.5 -141t-89 -94.5t-126.5 -33.5q-51 0 -92 15.5t-69 45.5v-49h-127zM429.5 143q42.5 42 42.5 114q0 73 -42.5 115t-106.5 42q-37 0 -69 -19t-51 -54.5t-19 -83.5t19 -83.5t51 -54t69 -18.5
q64 0 106.5 42z" />
    <glyph glyph-name="c" unicode="c" horiz-adv-x="536" 
d="M199 147.5q39 -41.5 101 -41.5q49 0 85.5 17.5t65.5 50.5l67 -99q-34 -37 -89 -62t-130 -25q-80 0 -140 35t-93 96.5t-33 137.5t33 137.5t93 96.5t140 35q75 0 130 -25t89 -62l-67 -99q-29 33 -65.5 50.5t-85.5 17.5q-62 0 -101 -41.5t-39 -109.5t39 -109.5z" />
    <glyph glyph-name="cacute" unicode="&#x107;" horiz-adv-x="536" 
d="M199 147.5q39 -41.5 101 -41.5q49 0 85.5 17.5t65.5 50.5l67 -99q-34 -37 -89 -62t-130 -25q-80 0 -140 35t-93 96.5t-33 137.5t33 137.5t93 96.5t140 35q75 0 130 -25t89 -62l-67 -99q-29 33 -65.5 50.5t-85.5 17.5q-62 0 -101 -41.5t-39 -109.5t39 -109.5zM447 736
h-131l-77 -154h120z" />
    <glyph glyph-name="ccaron" unicode="&#x10d;" horiz-adv-x="536" 
d="M199 147.5q39 -41.5 101 -41.5q49 0 85.5 17.5t65.5 50.5l67 -99q-34 -37 -89 -62t-130 -25q-80 0 -140 35t-93 96.5t-33 137.5t33 137.5t93 96.5t140 35q75 0 130 -25t89 -62l-67 -99q-29 33 -65.5 50.5t-85.5 17.5q-62 0 -101 -41.5t-39 -109.5t39 -109.5zM484 738
l-182 -162l-182 162h131l51 -49l51 49h131z" />
    <glyph glyph-name="ccedilla" unicode="&#xe7;" horiz-adv-x="536" 
d="M199 147.5q39 -41.5 101 -41.5q49 0 85.5 17.5t65.5 50.5l67 -99q-34 -37 -89 -62t-130 -25q-80 0 -140 35t-93 96.5t-33 137.5t33 137.5t93 96.5t140 35q75 0 130 -25t89 -62l-67 -99q-29 33 -65.5 50.5t-85.5 17.5q-62 0 -101 -41.5t-39 -109.5t39 -109.5zM387 -51
q22 -20 22 -46q0 -34 -29.5 -58t-70.5 -24q-47 0 -95 10l11 64q14 -5 34.5 -9t33.5 -4q11 0 18 5.5t7 15.5q0 14 -22.5 23t-68.5 10l43 127h86l-32 -95l2 1q39 0 61 -20z" />
    <glyph glyph-name="ccircumflex" unicode="&#x109;" horiz-adv-x="536" 
d="M199 147.5q39 -41.5 101 -41.5q49 0 85.5 17.5t65.5 50.5l67 -99q-34 -37 -89 -62t-130 -25q-80 0 -140 35t-93 96.5t-33 137.5t33 137.5t93 96.5t140 35q75 0 130 -25t89 -62l-67 -99q-29 33 -65.5 50.5t-85.5 17.5q-62 0 -101 -41.5t-39 -109.5t39 -109.5zM354 584
l-51 49l-51 -49h-131l182 162l182 -162h-131z" />
    <glyph glyph-name="cdotaccent" unicode="&#x10b;" horiz-adv-x="536" 
d="M240.5 604q-23.5 23 -23.5 54q0 32 23.5 55t54.5 23q30 0 53.5 -23t23.5 -53q0 -32 -23 -55.5t-54 -23.5t-54.5 23zM199 147.5q39 -41.5 101 -41.5q49 0 85.5 17.5t65.5 50.5l67 -99q-34 -37 -89 -62t-130 -25q-80 0 -140 35t-93 96.5t-33 137.5t33 137.5t93 96.5t140 35
q75 0 130 -25t89 -62l-67 -99q-29 33 -65.5 50.5t-85.5 17.5q-62 0 -101 -41.5t-39 -109.5t39 -109.5z" />
    <glyph glyph-name="d" unicode="d" horiz-adv-x="632" 
d="M442 49q-28 -30 -69 -45.5t-92 -15.5q-70 0 -126.5 33.5t-89 94.5t-32.5 141t32.5 141.5t89 95t126.5 33.5q51 0 92 -16t69 -46v305h127v-770h-127v49zM378 119.5q32 18.5 51 54t19 83.5t-19 83.5t-51 54.5t-69 19q-64 0 -106.5 -42t-42.5 -115q0 -72 42.5 -114
t106.5 -42q37 0 69 18.5z" />
    <glyph glyph-name="eth" unicode="&#xf0;" horiz-adv-x="601" 
d="M251 635q-47 43 -101 86v3h155q39 -27 67 -55l119 36l21 -79l-77 -23q59 -76 95.5 -159t36.5 -162q0 -80 -32 -148t-93 -108t-144 -40q-79 0 -139.5 36t-93.5 96t-33 129q0 71 32.5 128.5t86 90.5t112.5 33q81 0 135 -53q-32 66 -82 121l-137 -39l-22 79zM201.5 342.5
q-39.5 -34.5 -39.5 -98.5t39 -100t97 -36t96.5 36t38.5 100t-38 98.5t-96 34.5t-97.5 -34.5z" />
    <glyph glyph-name="dcaron" unicode="&#x10f;" horiz-adv-x="662" 
d="M442 49q-28 -30 -69 -45.5t-92 -15.5q-70 0 -126.5 33.5t-89 94.5t-32.5 141t32.5 141.5t89 95t126.5 33.5q51 0 92 -16t69 -46v305h127v-770h-127v49zM748 770l-38 -234h-84v234h122zM378 119.5q32 18.5 51 54t19 83.5t-19 83.5t-51 54.5t-69 19q-64 0 -106.5 -42
t-42.5 -115q0 -72 42.5 -114t106.5 -42q37 0 69 18.5z" />
    <glyph glyph-name="dcroat" unicode="&#x111;" horiz-adv-x="632" 
d="M629 580h-60v-580h-127v49q-28 -30 -69 -45.5t-92 -15.5q-70 0 -126.5 33.5t-89 94.5t-32.5 141t32.5 141.5t89 95t126.5 33.5q51 0 92 -16t69 -46v115h-138v86h138v104h127v-104h60v-86zM378 119.5q32 18.5 51 54t19 83.5t-19 83.5t-51 54.5t-69 19q-64 0 -106.5 -42
t-42.5 -115q0 -72 42.5 -114t106.5 -42q37 0 69 18.5z" />
    <glyph glyph-name="e" unicode="e" horiz-adv-x="565" 
d="M163.5 23q-62.5 35 -97 96.5t-34.5 136.5q0 79 33.5 140.5t92.5 96t133 34.5q117 0 178 -68t61 -177q0 -34 -5 -60h-363q8 -57 48.5 -91t102.5 -34q47 0 85 18.5t64 45.5l63 -92q-33 -33 -87.5 -57t-128.5 -24q-83 0 -145.5 35zM208 394q-34 -24 -43 -70h235
q-1 46 -31.5 70t-77.5 24q-49 0 -83 -24z" />
    <glyph glyph-name="eacute" unicode="&#xe9;" horiz-adv-x="565" 
d="M163.5 23q-62.5 35 -97 96.5t-34.5 136.5q0 79 33.5 140.5t92.5 96t133 34.5q117 0 178 -68t61 -177q0 -34 -5 -60h-363q8 -57 48.5 -91t102.5 -34q47 0 85 18.5t64 45.5l63 -92q-33 -33 -87.5 -57t-128.5 -24q-83 0 -145.5 35zM208 394q-34 -24 -43 -70h235
q-1 46 -31.5 70t-77.5 24q-49 0 -83 -24zM430 736h-131l-77 -154h120z" />
    <glyph glyph-name="ebreve" unicode="&#x115;" horiz-adv-x="565" 
d="M211.5 597q-38.5 21 -63 55.5t-27.5 71.5h89q6 -28 29.5 -49t54.5 -21q32 0 55 21t29 49h90q-4 -37 -28.5 -71.5t-63 -55.5t-82.5 -21t-82.5 21zM163.5 23q-62.5 35 -97 96.5t-34.5 136.5q0 79 33.5 140.5t92.5 96t133 34.5q117 0 178 -68t61 -177q0 -34 -5 -60h-363
q8 -57 48.5 -91t102.5 -34q47 0 85 18.5t64 45.5l63 -92q-33 -33 -87.5 -57t-128.5 -24q-83 0 -145.5 35zM208 394q-34 -24 -43 -70h235q-1 46 -31.5 70t-77.5 24q-49 0 -83 -24z" />
    <glyph glyph-name="ecaron" unicode="&#x11b;" horiz-adv-x="565" 
d="M163.5 23q-62.5 35 -97 96.5t-34.5 136.5q0 79 33.5 140.5t92.5 96t133 34.5q117 0 178 -68t61 -177q0 -34 -5 -60h-363q8 -57 48.5 -91t102.5 -34q47 0 85 18.5t64 45.5l63 -92q-33 -33 -87.5 -57t-128.5 -24q-83 0 -145.5 35zM208 394q-34 -24 -43 -70h235
q-1 46 -31.5 70t-77.5 24q-49 0 -83 -24zM477 738l-182 -162l-182 162h131l51 -49l51 49h131z" />
    <glyph glyph-name="ecircumflex" unicode="&#xea;" horiz-adv-x="565" 
d="M163.5 23q-62.5 35 -97 96.5t-34.5 136.5q0 79 33.5 140.5t92.5 96t133 34.5q117 0 178 -68t61 -177q0 -34 -5 -60h-363q8 -57 48.5 -91t102.5 -34q47 0 85 18.5t64 45.5l63 -92q-33 -33 -87.5 -57t-128.5 -24q-83 0 -145.5 35zM208 394q-34 -24 -43 -70h235
q-1 46 -31.5 70t-77.5 24q-49 0 -83 -24zM339 584l-51 49l-51 -49h-131l182 162l182 -162h-131z" />
    <glyph glyph-name="edieresis" unicode="&#xeb;" horiz-adv-x="565" 
d="M163.5 23q-62.5 35 -97 96.5t-34.5 136.5q0 79 33.5 140.5t92.5 96t133 34.5q117 0 178 -68t61 -177q0 -34 -5 -60h-363q8 -57 48.5 -91t102.5 -34q47 0 85 18.5t64 45.5l63 -92q-33 -33 -87.5 -57t-128.5 -24q-83 0 -145.5 35zM208 394q-34 -24 -43 -70h235
q-1 46 -31.5 70t-77.5 24q-49 0 -83 -24zM119 603.5q-23 22.5 -23 54.5t23 55t55 23q31 0 54 -22.5t23 -53.5q0 -32 -22.5 -55.5t-54.5 -23.5t-55 22.5zM347 603.5q-23 22.5 -23 54.5t23 55t55 23q31 0 54 -22.5t23 -53.5q0 -32 -22.5 -55.5t-54.5 -23.5t-55 22.5z" />
    <glyph glyph-name="edotaccent" unicode="&#x117;" horiz-adv-x="565" 
d="M238.5 604q-23.5 23 -23.5 54q0 32 23.5 55t54.5 23q30 0 53.5 -23t23.5 -53q0 -32 -23 -55.5t-54 -23.5t-54.5 23zM163.5 23q-62.5 35 -97 96.5t-34.5 136.5q0 79 33.5 140.5t92.5 96t133 34.5q117 0 178 -68t61 -177q0 -34 -5 -60h-363q8 -57 48.5 -91t102.5 -34
q47 0 85 18.5t64 45.5l63 -92q-33 -33 -87.5 -57t-128.5 -24q-83 0 -145.5 35zM208 394q-34 -24 -43 -70h235q-1 46 -31.5 70t-77.5 24q-49 0 -83 -24z" />
    <glyph glyph-name="egrave" unicode="&#xe8;" horiz-adv-x="565" 
d="M163.5 23q-62.5 35 -97 96.5t-34.5 136.5q0 79 33.5 140.5t92.5 96t133 34.5q117 0 178 -68t61 -177q0 -34 -5 -60h-363q8 -57 48.5 -91t102.5 -34q47 0 85 18.5t64 45.5l63 -92q-33 -33 -87.5 -57t-128.5 -24q-83 0 -145.5 35zM208 394q-34 -24 -43 -70h235
q-1 46 -31.5 70t-77.5 24q-49 0 -83 -24zM168 736h131l77 -154h-120z" />
    <glyph glyph-name="emacron" unicode="&#x113;" horiz-adv-x="565" 
d="M450 711v-102h-346v102h346zM163.5 23q-62.5 35 -97 96.5t-34.5 136.5q0 79 33.5 140.5t92.5 96t133 34.5q117 0 178 -68t61 -177q0 -34 -5 -60h-363q8 -57 48.5 -91t102.5 -34q47 0 85 18.5t64 45.5l63 -92q-33 -33 -87.5 -57t-128.5 -24q-83 0 -145.5 35zM208 394
q-34 -24 -43 -70h235q-1 46 -31.5 70t-77.5 24q-49 0 -83 -24z" />
    <glyph glyph-name="eogonek" unicode="&#x119;" horiz-adv-x="565" 
d="M525 222h-363q8 -57 48.5 -91t102.5 -34q47 0 85 18.5t64 45.5l63 -92q-24 -24 -54 -41l-64 -38q-32 -19 -44.5 -31.5t-12.5 -25.5q0 -29 36 -29q29 0 54 19l24 -77q-38 -24 -93 -24q-52 0 -83.5 28t-31.5 68q0 38 31 71q-76 4 -134 40.5t-89.5 95.5t-31.5 131
q0 79 33.5 140.5t92.5 96t133 34.5q117 0 178 -68t61 -177q0 -34 -5 -60zM400 324q-1 46 -31.5 70t-77.5 24q-49 0 -83 -24t-43 -70h235z" />
    <glyph glyph-name="f" unicode="f" horiz-adv-x="377" 
d="M231.5 657q-12.5 -18 -12.5 -52v-90h133v-102h-133v-413h-127v413h-63v102h63v90q0 79 46.5 128t127.5 49q79 0 123 -46t44 -117h-121q0 25 -11.5 40.5t-34.5 15.5q-22 0 -34.5 -18z" />
    <glyph glyph-name="g" unicode="g" horiz-adv-x="607" 
d="M65.5 150q31.5 -56 85.5 -86.5t119 -30.5q48 0 88 14t67 42v-46q0 -56 -34 -93.5t-96 -37.5q-52 0 -83 24.5t-42 63.5h-124q6 -54 37 -99.5t85.5 -73.5t126.5 -28q78 0 134.5 32.5t85.5 86t29 115.5v482h-121v-45q-27 27 -66 41.5t-87 14.5q-65 0 -119 -30.5t-85.5 -87
t-31.5 -129.5t31.5 -129zM194 380q39 38 99 38q35 0 66 -17t49.5 -49t18.5 -73t-18.5 -72t-49.5 -48t-66 -17q-60 0 -99 37t-39 100t39 101z" />
    <glyph glyph-name="gbreve" unicode="&#x11f;" horiz-adv-x="607" 
d="M216.5 597q-38.5 21 -63 55.5t-27.5 71.5h89q6 -28 29.5 -49t54.5 -21q32 0 55 21t29 49h90q-4 -37 -28.5 -71.5t-63 -55.5t-82.5 -21t-82.5 21zM65.5 150q31.5 -56 85.5 -86.5t119 -30.5q48 0 88 14t67 42v-46q0 -56 -34 -93.5t-96 -37.5q-52 0 -83 24.5t-42 63.5h-124
q6 -54 37 -99.5t85.5 -73.5t126.5 -28q78 0 134.5 32.5t85.5 86t29 115.5v482h-121v-45q-27 27 -66 41.5t-87 14.5q-65 0 -119 -30.5t-85.5 -87t-31.5 -129.5t31.5 -129zM194 380q39 38 99 38q35 0 66 -17t49.5 -49t18.5 -73t-18.5 -72t-49.5 -48t-66 -17q-60 0 -99 37
t-39 100t39 101z" />
    <glyph glyph-name="gcircumflex" unicode="&#x11d;" horiz-adv-x="607" 
d="M65.5 150q31.5 -56 85.5 -86.5t119 -30.5q48 0 88 14t67 42v-46q0 -56 -34 -93.5t-96 -37.5q-52 0 -83 24.5t-42 63.5h-124q6 -54 37 -99.5t85.5 -73.5t126.5 -28q78 0 134.5 32.5t85.5 86t29 115.5v482h-121v-45q-27 27 -66 41.5t-87 14.5q-65 0 -119 -30.5t-85.5 -87
t-31.5 -129.5t31.5 -129zM194 380q39 38 99 38q35 0 66 -17t49.5 -49t18.5 -73t-18.5 -72t-49.5 -48t-66 -17q-60 0 -99 37t-39 100t39 101zM353 584l-51 49l-51 -49h-131l182 162l182 -162h-131z" />
    <glyph glyph-name="uni0123" unicode="&#x123;" horiz-adv-x="607" 
d="M357.693 536.987v-194.739h-141.117l64.6777 194.739h76.4395zM65.5 150q31.5 -56 85.5 -86.5t119 -30.5q48 0 88 14t67 42v-46q0 -56 -34 -93.5t-96 -37.5q-52 0 -83 24.5t-42 63.5h-124q6 -54 37 -99.5t85.5 -73.5t126.5 -28q78 0 134.5 32.5t85.5 86t29 115.5v482
h-121v-45q-27 27 -66 41.5t-87 14.5q-65 0 -119 -30.5t-85.5 -87t-31.5 -129.5t31.5 -129zM194 380q39 38 99 38q35 0 66 -17t49.5 -49t18.5 -73t-18.5 -72t-49.5 -48t-66 -17q-60 0 -99 37t-39 100t39 101z" />
    <glyph glyph-name="gdotaccent" unicode="&#x121;" horiz-adv-x="607" 
d="M248.5 604q-23.5 23 -23.5 54q0 32 23.5 55t54.5 23q30 0 53.5 -23t23.5 -53q0 -32 -23 -55.5t-54 -23.5t-54.5 23zM65.5 150q31.5 -56 85.5 -86.5t119 -30.5q48 0 88 14t67 42v-46q0 -56 -34 -93.5t-96 -37.5q-52 0 -83 24.5t-42 63.5h-124q6 -54 37 -99.5t85.5 -73.5
t126.5 -28q78 0 134.5 32.5t85.5 86t29 115.5v482h-121v-45q-27 27 -66 41.5t-87 14.5q-65 0 -119 -30.5t-85.5 -87t-31.5 -129.5t31.5 -129zM194 380q39 38 99 38q35 0 66 -17t49.5 -49t18.5 -73t-18.5 -72t-49.5 -48t-66 -17q-60 0 -99 37t-39 100t39 101z" />
    <glyph glyph-name="h" unicode="h" horiz-adv-x="607" 
d="M190 770v-308q46 65 156 65q96 0 149.5 -61.5t53.5 -162.5v-303h-127v289q0 62 -29 93.5t-85 31.5q-53 0 -85.5 -32.5t-32.5 -92.5v-289h-127v770h127z" />
    <glyph glyph-name="hbar" unicode="&#x127;" horiz-adv-x="607" 
d="M495.5 465.5q53.5 -61.5 53.5 -162.5v-303h-127v289q0 62 -29 93.5t-85 31.5q-53 0 -85.5 -32.5t-32.5 -92.5v-289h-127v570h-59v86h59v114h127v-114h139v-86h-139v-108q46 65 156 65q96 0 149.5 -61.5z" />
    <glyph glyph-name="hcircumflex" unicode="&#x125;" horiz-adv-x="607" 
d="M190 770v-308q46 65 156 65q96 0 149.5 -61.5t53.5 -162.5v-303h-127v289q0 62 -29 93.5t-85 31.5q-53 0 -85.5 -32.5t-32.5 -92.5v-289h-127v770h127zM359 818l-51 49l-51 -49h-131l182 162l182 -162h-131z" />
    <glyph glyph-name="i" unicode="i" horiz-adv-x="253" 
d="M71 648.5q-23 22.5 -23 54.5t23 55t55 23q31 0 54 -22.5t23 -53.5q0 -32 -22.5 -55.5t-54.5 -23.5t-55 22.5zM190 515v-515h-127v515h127z" />
    <glyph glyph-name="dotlessi" unicode="&#x131;" horiz-adv-x="253" 
d="M190 515v-515h-127v515h127z" />
    <glyph glyph-name="iacute" unicode="&#xed;" horiz-adv-x="253" 
d="M62 582l77 154h131l-88 -154h-120zM190 515v-515h-127v515h127z" />
    <glyph glyph-name="ibreve" unicode="&#x12d;" horiz-adv-x="253" 
d="M44.5 597q-38.5 21 -63 55.5t-27.5 71.5h89q6 -28 29.5 -49t54.5 -21q32 0 55 21t29 49h90q-4 -37 -28.5 -71.5t-63 -55.5t-82.5 -21t-82.5 21zM190 515v-515h-127v515h127z" />
    <glyph glyph-name="icircumflex" unicode="&#xee;" horiz-adv-x="253" 
d="M76 584h-131l182 162l182 -162h-131l-51 49zM63 515h127v-515h-127v515z" />
    <glyph glyph-name="idieresis" unicode="&#xef;" horiz-adv-x="253" 
d="M-42 603.5q-23 22.5 -23 54.5t23 55t55 23q31 0 54 -22.5t23 -53.5q0 -32 -22.5 -55.5t-54.5 -23.5t-55 22.5zM186 603.5q-23 22.5 -23 54.5t23 55t55 23q31 0 54 -22.5t23 -53.5q0 -32 -22.5 -55.5t-54.5 -23.5t-55 22.5zM190 515v-515h-127v515h127z" />
    <glyph glyph-name="igrave" unicode="&#xec;" horiz-adv-x="253" 
d="M-16 736h131l77 -154h-120zM190 515v-515h-127v515h127z" />
    <glyph glyph-name="imacron" unicode="&#x12b;" horiz-adv-x="253" 
d="M307 711v-102h-346v102h346zM190 515v-515h-127v515h127z" />
    <glyph glyph-name="iogonek" unicode="&#x12f;" horiz-adv-x="254" 
d="M72 648.5q-23 22.5 -23 54.5t23 55t55 23q31 0 54 -22.5t23 -53.5q0 -32 -22.5 -55.5t-54.5 -23.5t-55 22.5zM191 515v-515h-127v515h127zM32.5 -152q-31.5 27 -31.5 64q0 53 53 88l54 35l83 -35l-42 -19q-54 -24 -54 -54q0 -28 33 -28q28 0 54 18l24 -73
q-39 -23 -93 -23q-49 0 -80.5 27z" />
    <glyph glyph-name="itilde" unicode="&#x129;" horiz-adv-x="253" 
d="M157 591q-18 9 -40 25q-16 12 -26.5 18t-20.5 6q-16 0 -31.5 -15.5t-27.5 -40.5l-65 44q30 58 55.5 81.5t59.5 23.5q21 0 38.5 -9t40.5 -26q16 -12 26.5 -18t20.5 -6q16 0 31.5 16t27.5 41l65 -53q-30 -53 -55.5 -74.5t-59.5 -21.5q-21 0 -39 9zM190 515v-515h-127v515
h127z" />
    <glyph glyph-name="j" unicode="j" horiz-adv-x="253" 
d="M71 648.5q-23 22.5 -23 54.5t23 55t55 23t54.5 -23t22.5 -55t-22.5 -54.5t-54.5 -22.5t-55 22.5zM63 515h127v-735h-127v735z" />
    <glyph glyph-name="uni0237" unicode="&#x237;" horiz-adv-x="253" 
d="M63 515h127v-735h-127v735z" />
    <glyph glyph-name="jcircumflex" unicode="&#x135;" horiz-adv-x="253" 
d="M73 584h-131l182 162l182 -162h-131l-51 49zM63 515h127v-735h-127v735z" />
    <glyph glyph-name="k" unicode="k" horiz-adv-x="538" 
d="M556 0h-154l-212 265v-265h-127v770h127v-492l171 237h153l-179 -235z" />
    <glyph glyph-name="uni0137" unicode="&#x137;" horiz-adv-x="538" 
d="M215.596 -199.914v194.738h141.117l-64.6787 -194.738h-76.4385zM556 0h-154l-212 265v-265h-127v770h127v-492l171 237h153l-179 -235z" />
    <glyph glyph-name="l" unicode="l" horiz-adv-x="253" 
d="M190 770v-770h-127v770h127z" />
    <glyph glyph-name="lacute" unicode="&#x13a;" horiz-adv-x="253" 
d="M190 770v-770h-127v770h127zM274 959h-131l-77 -154h120z" />
    <glyph glyph-name="lcaron" unicode="&#x13e;" horiz-adv-x="283" 
d="M190 770v-770h-127v770h127zM367 770l-38 -234h-84v234h122z" />
    <glyph glyph-name="uni013C" unicode="&#x13c;" horiz-adv-x="253" 
d="M190 770v-770h-127v770h127zM62 -257v195h141l-65 -195h-76z" />
    <glyph glyph-name="ldot" unicode="&#x140;" horiz-adv-x="377" 
d="M260.5 311q-23.5 23 -23.5 54q0 32 23.5 55t54.5 23q30 0 53.5 -23t23.5 -53q0 -32 -23 -55.5t-54 -23.5t-54.5 23zM190 770v-770h-127v770h127z" />
    <glyph glyph-name="lslash" unicode="&#x142;" horiz-adv-x="361" 
d="M339 385l-94 -45v-340h-127v278l-88 -42v112l88 42v380h127v-318l94 45v-112z" />
    <glyph glyph-name="m" unicode="m" horiz-adv-x="950" 
d="M697 527q95 0 145 -61t50 -163v-303h-127v289q0 62 -27 93.5t-83 31.5q-50 0 -82 -33t-32 -92v-289h-127v289q0 63 -25 94t-81 31q-53 0 -85.5 -32.5t-32.5 -92.5v-289h-127v515h127v-53q46 65 156 65q60 0 103 -22.5t63 -60.5q52 83 185 83z" />
    <glyph glyph-name="n" unicode="n" horiz-adv-x="607" 
d="M190 515v-53q20 29 59 47t97 18q96 0 149.5 -61.5t53.5 -162.5v-303h-127v289q0 62 -29 93.5t-85 31.5q-53 0 -85.5 -32.5t-32.5 -92.5v-289h-127v515h127z" />
    <glyph glyph-name="nacute" unicode="&#x144;" horiz-adv-x="607" 
d="M190 515v-53q20 29 59 47t97 18q96 0 149.5 -61.5t53.5 -162.5v-303h-127v289q0 62 -29 93.5t-85 31.5q-53 0 -85.5 -32.5t-32.5 -92.5v-289h-127v515h127zM448 736h-131l-77 -154h120z" />
    <glyph glyph-name="ncaron" unicode="&#x148;" horiz-adv-x="607" 
d="M190 515v-53q20 29 59 47t97 18q96 0 149.5 -61.5t53.5 -162.5v-303h-127v289q0 62 -29 93.5t-85 31.5q-53 0 -85.5 -32.5t-32.5 -92.5v-289h-127v515h127zM490 738l-182 -162l-182 162h131l51 -49l51 49h131z" />
    <glyph glyph-name="uni0146" unicode="&#x146;" horiz-adv-x="607" 
d="M242.055 -199.914v194.738h141.117l-64.6777 -194.738h-76.4395zM190 515v-53q20 29 59 47t97 18q96 0 149.5 -61.5t53.5 -162.5v-303h-127v289q0 62 -29 93.5t-85 31.5q-53 0 -85.5 -32.5t-32.5 -92.5v-289h-127v515h127z" />
    <glyph glyph-name="eng" unicode="&#x14b;" horiz-adv-x="607" 
d="M495.5 465.5q53.5 -61.5 53.5 -162.5v-303q-1 -86 -36 -140t-96 -89l-75 88q41 32 60.5 65t19.5 87v278q0 62 -29 93.5t-85 31.5q-53 0 -85.5 -32.5t-32.5 -92.5v-289h-127v515h127v-53q20 29 59 47t97 18q96 0 149.5 -61.5z" />
    <glyph glyph-name="ntilde" unicode="&#xf1;" horiz-adv-x="607" 
d="M190 515v-53q20 29 59 47t97 18q96 0 149.5 -61.5t53.5 -162.5v-303h-127v289q0 62 -29 93.5t-85 31.5q-53 0 -85.5 -32.5t-32.5 -92.5v-289h-127v515h127zM337 591q-18 9 -40 25q-16 12 -26.5 18t-20.5 6q-16 0 -31.5 -15.5t-27.5 -40.5l-65 44q30 58 55.5 81.5
t59.5 23.5q21 0 38.5 -9t40.5 -26q16 -12 26.5 -18t20.5 -6q16 0 31.5 16t27.5 41l65 -53q-30 -53 -55.5 -74.5t-59.5 -21.5q-21 0 -39 9z" />
    <glyph glyph-name="o" unicode="o" horiz-adv-x="610" 
d="M159 23.5q-62 37.5 -94.5 99.5t-32.5 134t32.5 133.5t94.5 99t146 37.5t146 -37.5t94.5 -99t32.5 -133.5t-32.5 -134t-94.5 -99.5t-146 -37.5t-146 37.5zM200.5 370.5q-41.5 -43.5 -41.5 -113.5q0 -71 41.5 -114.5t104.5 -43.5t104.5 43.5t41.5 114.5q0 70 -41.5 113.5
t-104.5 43.5t-104.5 -43.5z" />
    <glyph glyph-name="oacute" unicode="&#xf3;" horiz-adv-x="610" 
d="M159 23.5q-62 37.5 -94.5 99.5t-32.5 134t32.5 133.5t94.5 99t146 37.5t146 -37.5t94.5 -99t32.5 -133.5t-32.5 -134t-94.5 -99.5t-146 -37.5t-146 37.5zM200.5 370.5q-41.5 -43.5 -41.5 -113.5q0 -71 41.5 -114.5t104.5 -43.5t104.5 43.5t41.5 114.5q0 70 -41.5 113.5
t-104.5 43.5t-104.5 -43.5zM453 736h-131l-77 -154h120z" />
    <glyph glyph-name="obreve" unicode="&#x14f;" horiz-adv-x="610" 
d="M220.5 597q-38.5 21 -63 55.5t-27.5 71.5h89q6 -28 29.5 -49t54.5 -21q32 0 55 21t29 49h90q-4 -37 -28.5 -71.5t-63 -55.5t-82.5 -21t-82.5 21zM159 23.5q-62 37.5 -94.5 99.5t-32.5 134t32.5 133.5t94.5 99t146 37.5t146 -37.5t94.5 -99t32.5 -133.5t-32.5 -134
t-94.5 -99.5t-146 -37.5t-146 37.5zM200.5 370.5q-41.5 -43.5 -41.5 -113.5q0 -71 41.5 -114.5t104.5 -43.5t104.5 43.5t41.5 114.5q0 70 -41.5 113.5t-104.5 43.5t-104.5 -43.5z" />
    <glyph glyph-name="ocircumflex" unicode="&#xf4;" horiz-adv-x="610" 
d="M159 23.5q-62 37.5 -94.5 99.5t-32.5 134t32.5 133.5t94.5 99t146 37.5t146 -37.5t94.5 -99t32.5 -133.5t-32.5 -134t-94.5 -99.5t-146 -37.5t-146 37.5zM200.5 370.5q-41.5 -43.5 -41.5 -113.5q0 -71 41.5 -114.5t104.5 -43.5t104.5 43.5t41.5 114.5q0 70 -41.5 113.5
t-104.5 43.5t-104.5 -43.5zM358 584l-51 49l-51 -49h-131l182 162l182 -162h-131z" />
    <glyph glyph-name="odieresis" unicode="&#xf6;" horiz-adv-x="610" 
d="M159 23.5q-62 37.5 -94.5 99.5t-32.5 134t32.5 133.5t94.5 99t146 37.5t146 -37.5t94.5 -99t32.5 -133.5t-32.5 -134t-94.5 -99.5t-146 -37.5t-146 37.5zM200.5 370.5q-41.5 -43.5 -41.5 -113.5q0 -71 41.5 -114.5t104.5 -43.5t104.5 43.5t41.5 114.5q0 70 -41.5 113.5
t-104.5 43.5t-104.5 -43.5zM140 603.5q-23 22.5 -23 54.5t23 55t55 23q31 0 54 -22.5t23 -53.5q0 -32 -22.5 -55.5t-54.5 -23.5t-55 22.5zM368 603.5q-23 22.5 -23 54.5t23 55t55 23q31 0 54 -22.5t23 -53.5q0 -32 -22.5 -55.5t-54.5 -23.5t-55 22.5z" />
    <glyph glyph-name="ograve" unicode="&#xf2;" horiz-adv-x="610" 
d="M159 23.5q-62 37.5 -94.5 99.5t-32.5 134t32.5 133.5t94.5 99t146 37.5t146 -37.5t94.5 -99t32.5 -133.5t-32.5 -134t-94.5 -99.5t-146 -37.5t-146 37.5zM200.5 370.5q-41.5 -43.5 -41.5 -113.5q0 -71 41.5 -114.5t104.5 -43.5t104.5 43.5t41.5 114.5q0 70 -41.5 113.5
t-104.5 43.5t-104.5 -43.5zM177 736h131l77 -154h-120z" />
    <glyph glyph-name="ohungarumlaut" unicode="&#x151;" horiz-adv-x="610" 
d="M159 23.5q-62 37.5 -94.5 99.5t-32.5 134t32.5 133.5t94.5 99t146 37.5t146 -37.5t94.5 -99t32.5 -133.5t-32.5 -134t-94.5 -99.5t-146 -37.5t-146 37.5zM200.5 370.5q-41.5 -43.5 -41.5 -113.5q0 -71 41.5 -114.5t104.5 -43.5t104.5 43.5t41.5 114.5q0 70 -41.5 113.5
t-104.5 43.5t-104.5 -43.5zM340 738h-131l-77 -154h120zM558 738h-131l-77 -154h120z" />
    <glyph glyph-name="omacron" unicode="&#x14d;" horiz-adv-x="610" 
d="M159 23.5q-62 37.5 -94.5 99.5t-32.5 134t32.5 133.5t94.5 99t146 37.5t146 -37.5t94.5 -99t32.5 -133.5t-32.5 -134t-94.5 -99.5t-146 -37.5t-146 37.5zM200.5 370.5q-41.5 -43.5 -41.5 -113.5q0 -71 41.5 -114.5t104.5 -43.5t104.5 43.5t41.5 114.5q0 70 -41.5 113.5
t-104.5 43.5t-104.5 -43.5zM475 711v-102h-346v102h346z" />
    <glyph glyph-name="oslash" unicode="&#xf8;" horiz-adv-x="610" 
d="M554 372.5q24 -54.5 24 -115.5q0 -72 -32.5 -134t-94.5 -99.5t-146 -37.5q-48 0 -87 12l-19 -33h-127l49 86q-43 38 -66 91.5t-23 114.5q0 72 32.5 133.5t94.5 99t146 37.5q45 0 84 -11l19 32h126l-48 -83q44 -38 68 -92.5zM185 162l145 250q-16 2 -25 2
q-63 0 -104.5 -43.5t-41.5 -113.5q0 -54 26 -95zM409.5 142.5q41.5 43.5 41.5 114.5q0 58 -28 97l-146 -253q18 -2 28 -2q63 0 104.5 43.5z" />
    <glyph glyph-name="otilde" unicode="&#xf5;" horiz-adv-x="610" 
d="M159 23.5q-62 37.5 -94.5 99.5t-32.5 134t32.5 133.5t94.5 99t146 37.5t146 -37.5t94.5 -99t32.5 -133.5t-32.5 -134t-94.5 -99.5t-146 -37.5t-146 37.5zM200.5 370.5q-41.5 -43.5 -41.5 -113.5q0 -71 41.5 -114.5t104.5 -43.5t104.5 43.5t41.5 114.5q0 70 -41.5 113.5
t-104.5 43.5t-104.5 -43.5zM335 591q-18 9 -40 25q-16 12 -26.5 18t-20.5 6q-16 0 -31.5 -15.5t-27.5 -40.5l-65 44q30 58 55.5 81.5t59.5 23.5q21 0 38.5 -9t40.5 -26q16 -12 26.5 -18t20.5 -6q16 0 31.5 16t27.5 41l65 -53q-30 -53 -55.5 -74.5t-59.5 -21.5q-21 0 -39 9z
" />
    <glyph glyph-name="oe" unicode="&#x153;" horiz-adv-x="985" 
d="M598.5 12.5q-53.5 25.5 -88.5 70.5q-34 -45 -86 -71t-121 -26q-85 0 -146 37t-92.5 99t-31.5 135q0 72 31.5 134t92.5 99t146 37q68 0 119.5 -25t85.5 -70q33 46 84.5 70.5t115.5 24.5q73 0 128.5 -32t85.5 -89t30 -131q0 -30 -6 -62h-372q10 -54 48 -85t101 -31
q45 0 84 21.5t63 54.5l70 -83q-39 -47 -95 -75t-125 -28q-68 0 -121.5 25.5zM790 394.5q-34 27.5 -86 27.5q-49 0 -83 -27.5t-45 -77.5h254q-6 50 -40 77.5zM409.5 142.5q40.5 43.5 40.5 114.5q0 70 -40.5 113.5t-103.5 43.5t-103.5 -43.5t-40.5 -113.5q0 -71 40.5 -114.5
t103.5 -43.5t103.5 43.5z" />
    <glyph glyph-name="p" unicode="p" horiz-adv-x="632" 
d="M190 466q28 30 69 45.5t92 15.5q70 0 126.5 -33.5t89 -94.5t32.5 -141t-32.5 -141.5t-89 -95t-126.5 -33.5q-51 0 -92 16t-69 46v-270h-127v735h127v-49zM254 395.5q-32 -18.5 -51 -54t-19 -83.5t19 -83.5t51 -54.5t69 -19q64 0 106.5 42t42.5 115q0 72 -42.5 114
t-106.5 42q-37 0 -69 -18.5z" />
    <glyph glyph-name="thorn" unicode="&#xfe;" horiz-adv-x="632" 
d="M63 -220v990h127v-305q28 30 69 46t92 16q70 0 126.5 -33.5t89 -95t32.5 -141.5t-32.5 -141t-89 -94.5t-126.5 -33.5q-51 0 -92 15.5t-69 45.5v-269h-127zM429.5 143q42.5 42 42.5 114q0 73 -42.5 115t-106.5 42q-37 0 -69 -19t-51 -54.5t-19 -83.5t19 -83.5t51 -54
t69 -18.5q64 0 106.5 42z" />
    <glyph glyph-name="q" unicode="q" horiz-adv-x="632" 
d="M569 515v-734h-127v269q-28 -30 -69 -46t-92 -16q-70 0 -126.5 33.5t-89 95t-32.5 141.5t32.5 141t89 94.5t126.5 33.5q51 0 92 -15.5t69 -45.5v49h127zM202.5 372q-42.5 -42 -42.5 -114q0 -73 42.5 -115t106.5 -42q37 0 69 19t51 54.5t19 83.5t-19 83.5t-51 54t-69 18.5
q-64 0 -106.5 -42z" />
    <glyph glyph-name="r" unicode="r" horiz-adv-x="453" 
d="M190 515v-49q33 61 115 61q63 0 100 -46t33 -128h-124q0 28 -16 45t-43 17q-29 0 -47 -25t-18 -82v-308h-127v515h127z" />
    <glyph glyph-name="racute" unicode="&#x155;" horiz-adv-x="453" 
d="M190 515v-49q33 61 115 61q63 0 100 -46t33 -128h-124q0 28 -16 45t-43 17q-29 0 -47 -25t-18 -82v-308h-127v515h127zM378 736h-131l-77 -154h120z" />
    <glyph glyph-name="rcaron" unicode="&#x159;" horiz-adv-x="453" 
d="M190 515v-49q33 61 115 61q63 0 100 -46t33 -128h-124q0 28 -16 45t-43 17q-29 0 -47 -25t-18 -82v-308h-127v515h127zM427 738l-182 -162l-182 162h131l51 -49l51 49h131z" />
    <glyph glyph-name="uni0157" unicode="&#x157;" horiz-adv-x="453" 
d="M62.7188 -199.914v194.738h141.117l-64.6787 -194.738h-76.4385zM190 515v-49q33 61 115 61q63 0 100 -46t33 -128h-124q0 28 -16 45t-43 17q-29 0 -47 -25t-18 -82v-308h-127v515h127z" />
    <glyph glyph-name="s" unicode="s" horiz-adv-x="440" 
d="M93.5 16q-50.5 28 -75.5 71l83 83q16 -33 45 -52t70 -19q29 0 49 15.5t20 41.5q0 23 -16.5 38t-48.5 26l-46 15q-56 18 -89 55.5t-33 92.5q0 38 21.5 71.5t58.5 53t80 19.5q60 0 104.5 -24t66.5 -60l-83 -72q-33 48 -83 48q-21 0 -33.5 -10.5t-12.5 -25.5q0 -31 47 -47
l44 -15q146 -50 146 -165q0 -47 -24.5 -85.5t-68.5 -60.5t-99 -22q-72 0 -122.5 28z" />
    <glyph glyph-name="sacute" unicode="&#x15b;" horiz-adv-x="440" 
d="M93.5 16q-50.5 28 -75.5 71l83 83q16 -33 45 -52t70 -19q29 0 49 15.5t20 41.5q0 23 -16.5 38t-48.5 26l-46 15q-56 18 -89 55.5t-33 92.5q0 38 21.5 71.5t58.5 53t80 19.5q60 0 104.5 -24t66.5 -60l-83 -72q-33 48 -83 48q-21 0 -33.5 -10.5t-12.5 -25.5q0 -31 47 -47
l44 -15q146 -50 146 -165q0 -47 -24.5 -85.5t-68.5 -60.5t-99 -22q-72 0 -122.5 28zM371 736h-131l-77 -154h120z" />
    <glyph glyph-name="scaron" unicode="&#x161;" horiz-adv-x="440" 
d="M93.5 16q-50.5 28 -75.5 71l83 83q16 -33 45 -52t70 -19q29 0 49 15.5t20 41.5q0 23 -16.5 38t-48.5 26l-46 15q-56 18 -89 55.5t-33 92.5q0 38 21.5 71.5t58.5 53t80 19.5q60 0 104.5 -24t66.5 -60l-83 -72q-33 48 -83 48q-21 0 -33.5 -10.5t-12.5 -25.5q0 -31 47 -47
l44 -15q146 -50 146 -165q0 -47 -24.5 -85.5t-68.5 -60.5t-99 -22q-72 0 -122.5 28zM410 738l-182 -162l-182 162h131l51 -49l51 49h131z" />
    <glyph glyph-name="scedilla" unicode="&#x15f;" horiz-adv-x="440" 
d="M93.5 16q-50.5 28 -75.5 71l83 83q16 -33 45 -52t70 -19q29 0 49 15.5t20 41.5q0 23 -16.5 38t-48.5 26l-46 15q-56 18 -89 55.5t-33 92.5q0 38 21.5 71.5t58.5 53t80 19.5q60 0 104.5 -24t66.5 -60l-83 -72q-33 48 -83 48q-21 0 -33.5 -10.5t-12.5 -25.5q0 -31 47 -47
l44 -15q146 -50 146 -165q0 -47 -24.5 -85.5t-68.5 -60.5t-99 -22q-72 0 -122.5 28zM296 -51q22 -20 22 -46q0 -34 -29.5 -58t-70.5 -24q-47 0 -95 10l11 64q14 -5 34.5 -9t33.5 -4q11 0 18 5.5t7 15.5q0 14 -22.5 23t-68.5 10l43 127h86l-32 -95l2 1q39 0 61 -20z" />
    <glyph glyph-name="scircumflex" unicode="&#x15d;" horiz-adv-x="440" 
d="M93.5 16q-50.5 28 -75.5 71l83 83q16 -33 45 -52t70 -19q29 0 49 15.5t20 41.5q0 23 -16.5 38t-48.5 26l-46 15q-56 18 -89 55.5t-33 92.5q0 38 21.5 71.5t58.5 53t80 19.5q60 0 104.5 -24t66.5 -60l-83 -72q-33 48 -83 48q-21 0 -33.5 -10.5t-12.5 -25.5q0 -31 47 -47
l44 -15q146 -50 146 -165q0 -47 -24.5 -85.5t-68.5 -60.5t-99 -22q-72 0 -122.5 28zM274 584l-51 49l-51 -49h-131l182 162l182 -162h-131z" />
    <glyph glyph-name="uni0219" unicode="&#x219;" horiz-adv-x="440" 
d="M147.977 -199.914v194.738h141.117l-64.6777 -194.738h-76.4395zM93.5 16q-50.5 28 -75.5 71l83 83q16 -33 45 -52t70 -19q29 0 49 15.5t20 41.5q0 23 -16.5 38t-48.5 26l-46 15q-56 18 -89 55.5t-33 92.5q0 38 21.5 71.5t58.5 53t80 19.5q60 0 104.5 -24t66.5 -60
l-83 -72q-33 48 -83 48q-21 0 -33.5 -10.5t-12.5 -25.5q0 -31 47 -47l44 -15q146 -50 146 -165q0 -47 -24.5 -85.5t-68.5 -60.5t-99 -22q-72 0 -122.5 28z" />
    <glyph glyph-name="germandbls" unicode="&#xdf;" horiz-adv-x="592" 
d="M522.5 208.5q47.5 -56.5 47.5 -143.5q0 -73 -33 -129.5t-90.5 -88t-129.5 -31.5q-61 0 -114 20l45 104q30 -11 68 -11q39 0 68 19t44 49.5t15 65.5q0 56 -36.5 93t-99.5 37h-67l105 220h-155v-413h-127v770h127v-255h325l-115 -231q75 -19 122.5 -75.5z" />
    <glyph glyph-name="t" unicode="t" horiz-adv-x="383" 
d="M240 515h129v-102h-129v-413h-127v413h-109l206 254h30v-152z" />
    <glyph glyph-name="tbar" unicode="&#x167;" horiz-adv-x="392" 
d="M240 413v-89h125v-94h-125v-230h-127v230h-61v94h61v89h-109l206 254h30v-152h129v-102h-129z" />
    <glyph glyph-name="tcaron" unicode="&#x165;" horiz-adv-x="383" 
d="M420 809l-38 -234h-84v234h122zM240 515h129v-102h-129v-413h-127v413h-109l206 254h30v-152z" />
    <glyph glyph-name="u" unicode="u" horiz-adv-x="580" 
d="M163.5 19.5q-52.5 31.5 -79.5 83t-27 109.5v303h127v-289q0 -53 26.5 -89t79.5 -36t79.5 36t26.5 89v289h127v-303q0 -58 -27 -109.5t-79.5 -83t-126.5 -31.5t-126.5 31.5z" />
    <glyph glyph-name="uacute" unicode="&#xfa;" horiz-adv-x="580" 
d="M163.5 19.5q-52.5 31.5 -79.5 83t-27 109.5v303h127v-289q0 -53 26.5 -89t79.5 -36t79.5 36t26.5 89v289h127v-303q0 -58 -27 -109.5t-79.5 -83t-126.5 -31.5t-126.5 31.5zM442 736h-131l-77 -154h120z" />
    <glyph glyph-name="ubreve" unicode="&#x16d;" horiz-adv-x="580" 
d="M210.5 597q-38.5 21 -63 55.5t-27.5 71.5h89q6 -28 29.5 -49t54.5 -21q32 0 55 21t29 49h90q-4 -37 -28.5 -71.5t-63 -55.5t-82.5 -21t-82.5 21zM163.5 19.5q-52.5 31.5 -79.5 83t-27 109.5v303h127v-289q0 -53 26.5 -89t79.5 -36t79.5 36t26.5 89v289h127v-303
q0 -58 -27 -109.5t-79.5 -83t-126.5 -31.5t-126.5 31.5z" />
    <glyph glyph-name="ucircumflex" unicode="&#xfb;" horiz-adv-x="580" 
d="M163.5 19.5q-52.5 31.5 -79.5 83t-27 109.5v303h127v-289q0 -53 26.5 -89t79.5 -36t79.5 36t26.5 89v289h127v-303q0 -58 -27 -109.5t-79.5 -83t-126.5 -31.5t-126.5 31.5zM360 584l-51 49l-51 -49h-131l182 162l182 -162h-131z" />
    <glyph glyph-name="udieresis" unicode="&#xfc;" horiz-adv-x="580" 
d="M163.5 19.5q-52.5 31.5 -79.5 83t-27 109.5v303h127v-289q0 -53 26.5 -89t79.5 -36t79.5 36t26.5 89v289h127v-303q0 -58 -27 -109.5t-79.5 -83t-126.5 -31.5t-126.5 31.5zM127 603.5q-23 22.5 -23 54.5t23 55t55 23q31 0 54 -22.5t23 -53.5q0 -32 -22.5 -55.5
t-54.5 -23.5t-55 22.5zM355 603.5q-23 22.5 -23 54.5t23 55t55 23q31 0 54 -22.5t23 -53.5q0 -32 -22.5 -55.5t-54.5 -23.5t-55 22.5z" />
    <glyph glyph-name="ugrave" unicode="&#xf9;" horiz-adv-x="580" 
d="M163.5 19.5q-52.5 31.5 -79.5 83t-27 109.5v303h127v-289q0 -53 26.5 -89t79.5 -36t79.5 36t26.5 89v289h127v-303q0 -58 -27 -109.5t-79.5 -83t-126.5 -31.5t-126.5 31.5zM179 736h131l77 -154h-120z" />
    <glyph glyph-name="uhungarumlaut" unicode="&#x171;" horiz-adv-x="580" 
d="M163.5 19.5q-52.5 31.5 -79.5 83t-27 109.5v303h127v-289q0 -53 26.5 -89t79.5 -36t79.5 36t26.5 89v289h127v-303q0 -58 -27 -109.5t-79.5 -83t-126.5 -31.5t-126.5 31.5zM339 738h-131l-77 -154h120zM557 738h-131l-77 -154h120z" />
    <glyph glyph-name="umacron" unicode="&#x16b;" horiz-adv-x="580" 
d="M163.5 19.5q-52.5 31.5 -79.5 83t-27 109.5v303h127v-289q0 -53 26.5 -89t79.5 -36t79.5 36t26.5 89v289h127v-303q0 -58 -27 -109.5t-79.5 -83t-126.5 -31.5t-126.5 31.5zM477 711v-102h-346v102h346z" />
    <glyph glyph-name="uni0163" unicode="&#x163;" horiz-adv-x="383" 
d="M108.777 -199.914v194.738h141.117l-64.6777 -194.738h-76.4395zM240 515h129v-102h-129v-413h-127v413h-109l206 254h30v-152z" />
    <glyph glyph-name="uni021B" unicode="&#x21b;" horiz-adv-x="383" 
d="M107.798 -199.914v194.738h141.117l-64.6787 -194.738h-76.4385zM240 515h129v-102h-129v-413h-127v413h-109l206 254h30v-152z" />
    <glyph glyph-name="uogonek" unicode="&#x173;" horiz-adv-x="580" 
d="M523 515v-303q0 -51 -20.5 -96.5t-60.5 -77.5l-59 -54q-26 -22 -34.5 -34t-8.5 -25q0 -26 36 -26q29 0 54 18l24 -73q-39 -23 -93 -23q-51 0 -83 27t-32 64q0 39 42 76q-73 0 -125.5 32t-79 83t-26.5 109v303h127v-289q0 -53 26.5 -89t79.5 -36t79.5 36t26.5 89v289h127z
" />
    <glyph glyph-name="uring" unicode="&#x16f;" horiz-adv-x="580" 
d="M218 596q-34 32 -34 77t34 77t81 32q46 0 80 -32t34 -77t-34 -77t-80 -32q-47 0 -81 32zM331.5 641.5q13.5 12.5 13.5 31.5t-13.5 31.5t-32.5 12.5t-32.5 -12.5t-13.5 -31.5t13.5 -31.5t32.5 -12.5t32.5 12.5zM163.5 19.5q-52.5 31.5 -79.5 83t-27 109.5v303h127v-289
q0 -53 26.5 -89t79.5 -36t79.5 36t26.5 89v289h127v-303q0 -58 -27 -109.5t-79.5 -83t-126.5 -31.5t-126.5 31.5z" />
    <glyph glyph-name="utilde" unicode="&#x169;" horiz-adv-x="580" 
d="M326 591q-18 9 -40 25q-16 12 -26.5 18t-20.5 6q-16 0 -31.5 -15.5t-27.5 -40.5l-65 44q30 58 55.5 81.5t59.5 23.5q21 0 38.5 -9t40.5 -26q16 -12 26.5 -18t20.5 -6q16 0 31.5 16t27.5 41l65 -53q-30 -53 -55.5 -74.5t-59.5 -21.5q-21 0 -39 9zM163.5 19.5
q-52.5 31.5 -79.5 83t-27 109.5v303h127v-289q0 -53 26.5 -89t79.5 -36t79.5 36t26.5 89v289h127v-303q0 -58 -27 -109.5t-79.5 -83t-126.5 -31.5t-126.5 31.5z" />
    <glyph glyph-name="v" unicode="v" horiz-adv-x="543" 
d="M545 515h-138l-135 -281l-135 281h-138l257 -515h30z" />
    <glyph glyph-name="w" unicode="w" horiz-adv-x="842" 
d="M575 238l131 277h138l-245 -515h-30l-148 298l-148 -298h-30l-245 515h138l131 -277l139 277h30z" />
    <glyph glyph-name="wacute" unicode="&#x1e83;" horiz-adv-x="842" 
d="M575 238l131 277h138l-245 -515h-30l-148 298l-148 -298h-30l-245 515h138l131 -277l139 277h30zM571 736h-131l-77 -154h120z" />
    <glyph glyph-name="wcircumflex" unicode="&#x175;" horiz-adv-x="842" 
d="M575 238l131 277h138l-245 -515h-30l-148 298l-148 -298h-30l-245 515h138l131 -277l139 277h30zM472 584l-51 49l-51 -49h-131l182 162l182 -162h-131z" />
    <glyph glyph-name="wdieresis" unicode="&#x1e85;" horiz-adv-x="842" 
d="M258 603.5q-23 22.5 -23 54.5t23 55t55 23q31 0 54 -22.5t23 -53.5q0 -32 -22.5 -55.5t-54.5 -23.5t-55 22.5zM486 603.5q-23 22.5 -23 54.5t23 55t55 23q31 0 54 -22.5t23 -53.5q0 -32 -22.5 -55.5t-54.5 -23.5t-55 22.5zM575 238l131 277h138l-245 -515h-30l-148 298
l-148 -298h-30l-245 515h138l131 -277l139 277h30z" />
    <glyph glyph-name="wgrave" unicode="&#x1e81;" horiz-adv-x="842" 
d="M575 238l131 277h138l-245 -515h-30l-148 298l-148 -298h-30l-245 515h138l131 -277l139 277h30zM287 736h131l77 -154h-120z" />
    <glyph glyph-name="x" unicode="x" horiz-adv-x="532" 
d="M12 515h141l113 -169l113 169h141l-171 -249l186 -266h-143l-126 185l-126 -185h-143l186 266z" />
    <glyph glyph-name="y" unicode="y" horiz-adv-x="546" 
d="M539 515l-263 -735h-127l75 216l-222 519h136l143 -356l123 356h135z" />
    <glyph glyph-name="yacute" unicode="&#xfd;" horiz-adv-x="546" 
d="M539 515l-263 -735h-127l75 216l-222 519h136l143 -356l123 356h135zM412 736h-131l-77 -154h120z" />
    <glyph glyph-name="ycircumflex" unicode="&#x177;" horiz-adv-x="546" 
d="M539 515l-263 -735h-127l75 216l-222 519h136l143 -356l123 356h135zM323 584l-51 49l-51 -49h-131l182 162l182 -162h-131z" />
    <glyph glyph-name="ydieresis" unicode="&#xff;" horiz-adv-x="546" 
d="M539 515l-263 -735h-127l75 216l-222 519h136l143 -356l123 356h135zM110 603.5q-23 22.5 -23 54.5t23 55t55 23q31 0 54 -22.5t23 -53.5q0 -32 -22.5 -55.5t-54.5 -23.5t-55 22.5zM338 603.5q-23 22.5 -23 54.5t23 55t55 23q31 0 54 -22.5t23 -53.5q0 -32 -22.5 -55.5
t-54.5 -23.5t-55 22.5z" />
    <glyph glyph-name="ygrave" unicode="&#x1ef3;" horiz-adv-x="546" 
d="M539 515l-263 -735h-127l75 216l-222 519h136l143 -356l123 356h135zM139 736h131l77 -154h-120z" />
    <glyph glyph-name="z" unicode="z" horiz-adv-x="473" 
d="M451 102v-102h-436l234 413h-215v102h416l-237 -413h238z" />
    <glyph glyph-name="zacute" unicode="&#x17a;" horiz-adv-x="473" 
d="M451 102v-102h-436l234 413h-215v102h416l-237 -413h238zM367 736h-131l-77 -154h120z" />
    <glyph glyph-name="zcaron" unicode="&#x17e;" horiz-adv-x="473" 
d="M451 102v-102h-436l234 413h-215v102h416l-237 -413h238zM413 738l-182 -162l-182 162h131l51 -49l51 49h131z" />
    <glyph glyph-name="zdotaccent" unicode="&#x17c;" horiz-adv-x="473" 
d="M186.5 604q-23.5 23 -23.5 54q0 32 23.5 55t54.5 23q30 0 53.5 -23t23.5 -53q0 -32 -23 -55.5t-54 -23.5t-54.5 23zM451 102v-102h-436l234 413h-215v102h416l-237 -413h238z" />
    <glyph glyph-name="ordfeminine" unicode="&#xaa;" horiz-adv-x="336" 
d="M156 781q62 0 96.5 -35.5t34.5 -96.5v-154h-80v23q-15 -15 -35 -22.5t-42 -7.5q-43 0 -70 25t-27 63q0 37 31.5 61.5t74.5 24.5q42 0 67 -17v9q0 56 -56 56q-12 0 -25.5 -5t-22.5 -14l-54 46q37 44 108 44zM184 555.5q11 8.5 11 21.5q0 14 -10 22.5t-30 8.5
q-18 0 -29 -8.5t-11 -22.5q0 -13 11.5 -21.5t28.5 -8.5q18 0 29 8.5z" />
    <glyph glyph-name="ordmasculine" unicode="&#xba;" horiz-adv-x="374" 
d="M103 509.5q-35 21.5 -53 55.5t-18 70t18 70t53 55.5t83 21.5t83 -21.5t53.5 -55.5t18.5 -70t-18.5 -70t-53.5 -55.5t-83 -21.5t-83 21.5zM237 582q20 20 20 53t-20 53t-50 20t-50 -20t-20 -53t20 -53t50 -20t50 20z" />
    <glyph glyph-name="Pi" unicode="&#x3a0;" horiz-adv-x="737" 
d="M659 724v-724h-130v606h-321v-606h-130v724h581z" />
    <glyph glyph-name="Sigma" unicode="&#x3a3;" horiz-adv-x="557" 
d="M30 724h487v-113h-280l117 -242l-138 -256h303v-113h-497l195 369z" />
    <glyph glyph-name="uni03BC" unicode="&#x3bc;" horiz-adv-x="586" 
d="M529 515v-303q0 -58 -24 -109.5t-71 -83t-114 -31.5q-39 0 -72.5 14.5t-57.5 39.5v-261h-127v734h127v-289q0 -53 26.5 -89t79.5 -36t79.5 36t26.5 89v289h127z" />
    <glyph glyph-name="zero" unicode="0" horiz-adv-x="676" 
d="M187.5 33.5q-67.5 45.5 -106 128t-38.5 189.5q0 106 38.5 188.5t106 128t150.5 45.5t150.5 -45.5t106 -128t38.5 -188.5q0 -107 -38.5 -189.5t-106 -128t-150.5 -45.5t-150.5 45.5zM422.5 140.5q37.5 30.5 59 85.5t21.5 125t-21.5 124.5t-59 85t-84.5 30.5t-84.5 -30.5
t-59 -85t-21.5 -124.5t21.5 -125t59 -85.5t84.5 -30.5t84.5 30.5z" />
    <glyph glyph-name="one" unicode="1" horiz-adv-x="366" 
d="M289 0h-131v443h-153l244 258h40v-701z" />
    <glyph glyph-name="two" unicode="2" horiz-adv-x="548" 
d="M253 302q5 6 39 45t55 78t21 67q0 48 -33 74.5t-82 26.5q-42 0 -76.5 -22t-57.5 -59l-82 76q26 51 81 89t135 38q69 0 124.5 -24.5t88 -73t32.5 -117.5q0 -47 -25 -97.5t-49.5 -82t-74.5 -91.5l-94 -111h244v-118h-471v40z" />
    <glyph glyph-name="three" unicode="3" horiz-adv-x="572" 
d="M340 462q88 -12 140 -67t52 -155q0 -72 -36.5 -129.5t-100 -90t-139.5 -32.5q-149 0 -241 100l73 97q33 -35 71 -55t97 -20q45 0 78 18t50.5 48t17.5 64q0 57 -43 95t-113 38q-24 0 -55.5 -2.5t-48.5 -5.5l159 218h-215v118h405v-40z" />
    <glyph glyph-name="four" unicode="4" horiz-adv-x="606" 
d="M475 235h102v-117h-102v-118h-130v118h-346l436 583h40v-466zM358 439l-160 -218h160v218z" />
    <glyph glyph-name="five" unicode="5" horiz-adv-x="566" 
d="M161.5 128.5q37.5 -18.5 96.5 -18.5q46 0 79.5 18t51 48t17.5 64q0 54 -45 84.5t-109 30.5q-72 0 -175 -14l58 360h330v-118h-234l-20 -113q40 7 66 7q73 0 131.5 -26t93 -79.5t34.5 -131.5q0 -71 -37.5 -129t-101 -90.5t-139.5 -32.5q-149 0 -241 100l75 92
q32 -33 69.5 -51.5z" />
    <glyph glyph-name="six" unicode="6" horiz-adv-x="597" 
d="M163.5 22.5q-60.5 34.5 -92.5 94t-32 132.5q0 62 23 117t59 115l134 220h145l-134 -215q10 7 29.5 12t39.5 5q67 0 121.5 -34t85.5 -92t31 -128q0 -71 -34 -130.5t-95 -95t-138 -35.5q-82 0 -142.5 34.5zM235 365q-31 -20 -48.5 -52t-17.5 -68q0 -35 17.5 -66t48.5 -50
t71 -19t71 19t48.5 50t17.5 66q0 36 -17.5 68.5t-48.5 52t-71 19.5t-71 -20z" />
    <glyph glyph-name="seven" unicode="7" horiz-adv-x="500" 
d="M199 0h-141l250 583h-278v118h453v-40z" />
    <glyph glyph-name="eight" unicode="8" 
d="M528 348q34 -51 34 -112q0 -69 -35.5 -126t-95.5 -90.5t-131 -33.5q-76 0 -135.5 32.5t-93 90t-33.5 127.5q0 63 32.5 114.5t89.5 80.5q-46 43 -46 107q0 51 23.5 91t66 63t96.5 23q52 0 94.5 -23t67 -63.5t24.5 -90.5q0 -66 -49 -108q57 -31 91 -82zM248.5 589.5
q-21.5 -21.5 -21.5 -51.5t21.5 -51t51.5 -21t51.5 21t21.5 51t-21.5 51.5t-51.5 21.5t-51.5 -21.5zM365.5 124.5q30.5 16.5 48.5 45.5t18 63q0 35 -18 64t-48.5 45.5t-65.5 16.5t-65.5 -16.5t-48.5 -45.5t-18 -64q0 -34 18 -63t48.5 -45.5t65.5 -16.5t65.5 16.5z" />
    <glyph glyph-name="nine" unicode="9" horiz-adv-x="597" 
d="M433.5 678.5q60.5 -34.5 92.5 -94t32 -132.5q0 -62 -23 -117t-59 -115l-134 -220h-145l134 215q-10 -7 -29.5 -12t-39.5 -5q-67 0 -121.5 34t-85.5 92t-31 128q0 71 34 130.5t95 95t138 35.5q82 0 142.5 -34.5zM362 336q31 20 48.5 52t17.5 68q0 35 -17.5 66t-48.5 50
t-71 19t-71 -19t-48.5 -50t-17.5 -66q0 -36 17.5 -68.5t48.5 -52t71 -19.5t71 20z" />
    <glyph glyph-name="zero.tnum" 
d="M156.5 33.5q-62.5 45.5 -97 128t-34.5 189.5q0 106 34.5 188.5t97 128t143.5 45.5t143.5 -45.5t97 -128t34.5 -188.5q0 -107 -34.5 -189.5t-97 -128t-143.5 -45.5t-143.5 45.5zM406.5 176.5q38.5 66.5 38.5 174.5q0 107 -38.5 173.5t-106.5 66.5t-106.5 -66.5
t-38.5 -173.5q0 -108 38.5 -174.5t106.5 -66.5t106.5 66.5z" />
    <glyph glyph-name="one.tnum" 
d="M537 114v-114h-456v114h166v329h-153l244 258h40v-587h159z" />
    <glyph glyph-name="two.tnum" 
d="M147.5 677.5q59.5 37.5 132.5 37.5q69 0 124.5 -24.5t88 -73t32.5 -117.5q0 -48 -24 -99t-51.5 -88.5t-65.5 -83.5l-92 -111h234v-118h-480v21l238 281q5 6 38 44.5t53 77.5t20 68q0 48 -33 74.5t-82 26.5q-42 0 -76.5 -22t-57.5 -59l-84 79q26 49 85.5 86.5z" />
    <glyph glyph-name="three.tnum" 
d="M123 21q-62 33 -101 82l76 94q36 -41 74.5 -64t103.5 -23q69 0 107.5 38t38.5 92q0 57 -43 95t-113 38q-49 0 -93 -8v21l142 197h-209v118h406v-21l-159 -219q90 -12 144.5 -66.5t54.5 -154.5q0 -72 -37 -129.5t-100 -90t-139 -32.5q-91 0 -153 33z" />
    <glyph glyph-name="four.tnum" 
d="M459 700h21v-465h102v-117h-102v-118h-130v118h-356v21zM359 423l-166 -202h166v202z" />
    <glyph glyph-name="five.tnum" 
d="M520.5 111q-37.5 -58 -101 -90.5t-139.5 -32.5q-91 0 -153 33t-101 82l76 91q35 -39 74 -61.5t104 -22.5q46 0 79.5 18t51 48t17.5 64q0 54 -45 84.5t-109 30.5q-38 0 -72 -5.5t-58.5 -11t-31.5 -7.5l-18 13l63 357h330v-118h-234l-20 -113q40 7 66 7q73 0 131.5 -26
t93 -79.5t34.5 -131.5q0 -71 -37.5 -129z" />
    <glyph glyph-name="six.tnum" 
d="M165.5 22.5q-60.5 34.5 -92.5 94t-32 132.5q0 62 23 117t59 115l134 220h145l-134 -215q10 7 29.5 12t39.5 5q67 0 121.5 -34t85.5 -92t31 -128q0 -71 -34 -130.5t-95 -95t-138 -35.5q-82 0 -142.5 34.5zM237 365q-31 -20 -48.5 -52t-17.5 -68q0 -35 17.5 -66t48.5 -50
t71 -19t71 19t48.5 50t17.5 66q0 36 -17.5 68.5t-48.5 52t-71 19.5t-71 -20z" />
    <glyph glyph-name="seven.tnum" 
d="M370 582h-316v118h498v-30l-274 -670h-146v3z" />
    <glyph glyph-name="eight.tnum" 
d="M528 348q34 -51 34 -112q0 -69 -35.5 -126t-95.5 -90.5t-131 -33.5q-76 0 -135.5 32.5t-93 90t-33.5 127.5q0 63 32.5 114.5t89.5 80.5q-46 43 -46 107q0 51 23.5 91t66 63t96.5 23q52 0 94.5 -23t67 -63.5t24.5 -90.5q0 -66 -49 -108q57 -31 91 -82zM248.5 589.5
q-21.5 -21.5 -21.5 -51.5t21.5 -51t51.5 -21t51.5 21t21.5 51t-21.5 51.5t-51.5 21.5t-51.5 -21.5zM365.5 124.5q30.5 16.5 48.5 45.5t18 63q0 35 -18 64t-48.5 45.5t-65.5 16.5t-65.5 -16.5t-48.5 -45.5t-18 -64q0 -34 18 -63t48.5 -45.5t65.5 -16.5t65.5 16.5z" />
    <glyph glyph-name="nine.tnum" 
d="M434.5 678.5q60.5 -34.5 92.5 -94t32 -132.5q0 -62 -23 -117t-59 -115l-134 -220h-145l134 215q-10 -7 -29.5 -12t-39.5 -5q-67 0 -121.5 34t-85.5 92t-31 128q0 71 34 130.5t95 95t138 35.5q82 0 142.5 -34.5zM363 336q31 20 48.5 52t17.5 68q0 35 -17.5 66t-48.5 50
t-71 19t-71 -19t-48.5 -50t-17.5 -66q0 -36 17.5 -68.5t48.5 -52t71 -19.5t71 20z" />
    <glyph glyph-name="zero.inferior" horiz-adv-x="419" 
d="M117 -156.5q-41 26.5 -64 74t-23 107.5t23 107t64 73.5t93 26.5t92.5 -26.5t63.5 -73.5t23 -107t-23 -107.5t-63.5 -74t-92.5 -26.5t-93 26.5zM275.5 -67q25.5 36 25.5 92q0 55 -25.5 91t-65.5 36t-65.5 -36t-25.5 -91q0 -56 25.5 -92t65.5 -36t65.5 36z" />
    <glyph glyph-name="one.inferior" horiz-adv-x="228" 
d="M177 249v-424h-89v246h-83z" />
    <glyph glyph-name="two.inferior" horiz-adv-x="343" 
d="M184 -97h120v-78h-289l145 178q6 7 23.5 28t27.5 39.5t10 33.5q0 23 -16.5 36.5t-44.5 13.5q-47 0 -74 -42l-62 48q20 33 57.5 53.5t78.5 20.5q68 0 109 -34t41 -91q0 -39 -23 -74.5t-60 -80.5z" />
    <glyph glyph-name="three.inferior" horiz-adv-x="357" 
d="M106 -92.5q21 -10.5 54 -10.5q36 0 58 18.5t22 47.5q0 30 -24 49t-62 19q-17 0 -36 -1t-32 -3l85 121h-111v77h258l-99 -133q51 -11 80.5 -43.5t29.5 -85.5q0 -41 -22.5 -74.5t-61 -52.5t-85.5 -19q-88 0 -146 58l52 62q19 -19 40 -29.5z" />
    <glyph glyph-name="four.inferior" horiz-adv-x="383" 
d="M304 -39h54v-77h-54v-60h-88v60h-208l296 362v-285zM225 53l-88 -111h88v111z" />
    <glyph glyph-name="five.inferior" horiz-adv-x="354" 
d="M107 -93.5q21 -9.5 54 -9.5q36 0 58.5 18.5t22.5 47.5q0 26 -23 42t-61 16q-51 0 -103 -8l34 212h194v-77h-132l-9 -49q10 2 30 2q73 0 116 -37t43 -101q0 -40 -22.5 -73.5t-61.5 -53t-86 -19.5q-50 0 -86 17t-60 41v8l53 51q18 -18 39 -27.5z" />
    <glyph glyph-name="six.inferior" horiz-adv-x="374" 
d="M73.5 -141q-45.5 42 -45.5 109q0 36 13.5 65.5t36.5 66.5l78 124l101 1l-75 -113q9 3 26 3q41 0 74.5 -19.5t52.5 -53t19 -74.5q0 -42 -21.5 -76.5t-58.5 -54.5t-83 -20q-72 0 -117.5 42zM138.5 17q-21.5 -21 -21.5 -51q0 -29 21.5 -49t52.5 -20t53 20t22 49q0 30 -22 51
t-53 21t-52.5 -21z" />
    <glyph glyph-name="seven.inferior" horiz-adv-x="303" 
d="M24 148v79h267l-150 -402h-96l123 323h-144z" />
    <glyph glyph-name="eight.inferior" horiz-adv-x="375" 
d="M328 17.5q20 -27.5 20 -59.5q0 -39 -21.5 -72t-58.5 -52t-80 -19q-70 0 -115.5 40t-45.5 103q0 34 19 61t51 44q-27 25 -27 63q0 46 33.5 76t84.5 30q50 0 83.5 -30t33.5 -76q0 -37 -29 -64q32 -17 52 -44.5zM156.5 156.5q-12.5 -11.5 -12.5 -29.5t12.5 -29.5t31.5 -11.5
q18 0 30.5 11.5t12.5 29.5t-12.5 29.5t-30.5 11.5q-19 0 -31.5 -11.5zM238 -86.5q21 18.5 21 44.5t-20.5 45t-50.5 19q-31 0 -51.5 -18.5t-20.5 -45.5q0 -26 21 -44.5t51 -18.5q29 0 50 18.5z" />
    <glyph glyph-name="nine.inferior" horiz-adv-x="374" 
d="M300.5 187.5q45.5 -42.5 45.5 -109.5q0 -36 -13.5 -65.5t-36.5 -66.5l-78 -123l-101 -1l75 112q-9 -3 -26 -3q-41 0 -74.5 19.5t-52.5 53t-19 74.5q0 42 21.5 77t58.5 55t83 20q72 0 117.5 -42.5zM235.5 29q21.5 21 21.5 51q0 29 -21.5 49.5t-52.5 20.5t-53 -20.5
t-22 -49.5q0 -30 22 -51t53 -21t52.5 21z" />
    <glyph glyph-name="zero.dnom" horiz-adv-x="420" 
d="M117 19.5q-41 26.5 -64 74t-23 107.5t23 107t64 73.5t93 26.5t92.5 -26.5t63.5 -73.5t23 -107t-23 -107.5t-63.5 -74t-92.5 -26.5t-93 26.5zM275.5 109q25.5 36 25.5 92q0 55 -25.5 91t-65.5 36t-65.5 -36t-25.5 -91q0 -56 25.5 -92t65.5 -36t65.5 36z" />
    <glyph glyph-name="one.dnom" horiz-adv-x="227" 
d="M176 424v-424h-89v246h-83z" />
    <glyph glyph-name="two.dnom" horiz-adv-x="343" 
d="M184 78h120v-78h-289l145 178q6 7 23.5 28t27.5 39.5t10 33.5q0 23 -16.5 36.5t-44.5 13.5q-47 0 -74 -42l-62 48q20 33 57.5 53.5t78.5 20.5q68 0 109 -34t41 -91q0 -39 -23 -74.5t-60 -80.5z" />
    <glyph glyph-name="three.dnom" horiz-adv-x="356" 
d="M105 82.5q21 -10.5 54 -10.5q36 0 58 18.5t22 47.5q0 30 -24 49t-62 19q-17 0 -36 -1t-32 -3l85 121h-111v77h258l-99 -133q51 -11 80.5 -43.5t29.5 -85.5q0 -41 -22.5 -74.5t-61 -52.5t-85.5 -19q-88 0 -146 58l52 62q19 -19 40 -29.5z" />
    <glyph glyph-name="four.dnom" horiz-adv-x="383" 
d="M304 137h54v-77h-54v-60h-88v60h-208l296 362v-285zM225 229l-88 -111h88v111z" />
    <glyph glyph-name="five.dnom" horiz-adv-x="353" 
d="M107 81.5q21 -9.5 54 -9.5q36 0 58.5 18.5t22.5 47.5q0 26 -23 42t-61 16q-51 0 -103 -8l34 212h194v-77h-132l-9 -49q10 2 30 2q73 0 116 -37t43 -101q0 -40 -22.5 -73.5t-61.5 -53t-86 -19.5q-50 0 -86 17t-60 41v8l53 51q18 -18 39 -27.5z" />
    <glyph glyph-name="six.dnom" horiz-adv-x="374" 
d="M73.5 34q-45.5 42 -45.5 109q0 36 13.5 65.5t36.5 66.5l78 124l101 1l-75 -113q9 3 26 3q41 0 74.5 -19.5t52.5 -53t19 -74.5q0 -42 -21.5 -76.5t-58.5 -54.5t-83 -20q-72 0 -117.5 42zM138.5 192q-21.5 -21 -21.5 -51q0 -29 21.5 -49t52.5 -20t53 20t22 49q0 30 -22 51
t-53 21t-52.5 -21z" />
    <glyph glyph-name="seven.dnom" horiz-adv-x="304" 
d="M24 323v79h267l-150 -402h-96l123 323h-144z" />
    <glyph glyph-name="eight.dnom" horiz-adv-x="375" 
d="M328 194.5q20 -27.5 20 -59.5q0 -39 -21.5 -72t-58.5 -52t-80 -19q-70 0 -115.5 40t-45.5 103q0 34 19 61t51 44q-27 25 -27 63q0 46 33.5 76t84.5 30q50 0 83.5 -30t33.5 -76q0 -37 -29 -64q32 -17 52 -44.5zM156.5 333.5q-12.5 -11.5 -12.5 -29.5t12.5 -29.5
t31.5 -11.5q18 0 30.5 11.5t12.5 29.5t-12.5 29.5t-30.5 11.5q-19 0 -31.5 -11.5zM238 90.5q21 18.5 21 44.5t-20.5 45t-50.5 19q-31 0 -51.5 -18.5t-20.5 -45.5q0 -26 21 -44.5t51 -18.5q29 0 50 18.5z" />
    <glyph glyph-name="nine.dnom" horiz-adv-x="374" 
d="M300.5 365.5q45.5 -42.5 45.5 -109.5q0 -36 -13.5 -65.5t-36.5 -66.5l-78 -123l-101 -1l75 112q-9 -3 -26 -3q-41 0 -74.5 19.5t-52.5 53t-19 74.5q0 42 21.5 77t58.5 55t83 20q72 0 117.5 -42.5zM235.5 207q21.5 21 21.5 51q0 29 -21.5 49.5t-52.5 20.5t-53 -20.5
t-22 -49.5q0 -30 22 -51t53 -21t52.5 21z" />
    <glyph glyph-name="zero.numr" horiz-adv-x="421" 
d="M118 326.5q-41 26.5 -64 74t-23 107.5t23 107t64 73.5t93 26.5t92.5 -26.5t63.5 -73.5t23 -107t-23 -107.5t-63.5 -74t-92.5 -26.5t-93 26.5zM276.5 416q25.5 36 25.5 92q0 55 -25.5 91t-65.5 36t-65.5 -36t-25.5 -91q0 -56 25.5 -92t65.5 -36t65.5 36z" />
    <glyph glyph-name="one.numr" horiz-adv-x="230" 
d="M179 731v-424h-89v246h-83z" />
    <glyph glyph-name="two.numr" horiz-adv-x="343" 
d="M184 386h120v-78h-289l145 178q6 7 23.5 28t27.5 39.5t10 33.5q0 23 -16.5 36.5t-44.5 13.5q-47 0 -74 -42l-62 48q20 33 57.5 53.5t78.5 20.5q68 0 109 -34t41 -91q0 -39 -23 -74.5t-60 -80.5z" />
    <glyph glyph-name="three.numr" horiz-adv-x="356" 
d="M105 389.5q21 -10.5 54 -10.5q36 0 58 18.5t22 47.5q0 30 -24 49t-62 19q-17 0 -36 -1t-32 -3l85 121h-111v77h258l-99 -133q51 -11 80.5 -43.5t29.5 -85.5q0 -41 -22.5 -74.5t-61 -52.5t-85.5 -19q-88 0 -146 58l52 62q19 -19 40 -29.5z" />
    <glyph glyph-name="four.numr" horiz-adv-x="380" 
d="M301 445h54v-77h-54v-60h-88v60h-208l296 362v-285zM222 537l-88 -111h88v111z" />
    <glyph glyph-name="five.numr" horiz-adv-x="353" 
d="M107 389.5q21 -9.5 54 -9.5q36 0 58.5 18.5t22.5 47.5q0 26 -23 42t-61 16q-51 0 -103 -8l34 212h194v-77h-132l-9 -49q10 2 30 2q73 0 116 -37t43 -101q0 -40 -22.5 -73.5t-61.5 -53t-86 -19.5q-50 0 -86 17t-60 41v8l53 51q18 -18 39 -27.5z" />
    <glyph glyph-name="six.numr" horiz-adv-x="374" 
d="M73.5 342q-45.5 42 -45.5 109q0 36 13.5 65.5t36.5 66.5l78 124l101 1l-75 -113q9 3 26 3q41 0 74.5 -19.5t52.5 -53t19 -74.5q0 -42 -21.5 -76.5t-58.5 -54.5t-83 -20q-72 0 -117.5 42zM138.5 500q-21.5 -21 -21.5 -51q0 -29 21.5 -49t52.5 -20t53 20t22 49q0 30 -22 51
t-53 21t-52.5 -21z" />
    <glyph glyph-name="seven.numr" horiz-adv-x="304" 
d="M23 630v79h267l-150 -402h-96l123 323h-144z" />
    <glyph glyph-name="eight.numr" horiz-adv-x="375" 
d="M328 502.5q20 -27.5 20 -59.5q0 -39 -21.5 -72t-58.5 -52t-80 -19q-70 0 -115.5 40t-45.5 103q0 34 19 61t51 44q-27 25 -27 63q0 46 33.5 76t84.5 30q50 0 83.5 -30t33.5 -76q0 -37 -29 -64q32 -17 52 -44.5zM156.5 641.5q-12.5 -11.5 -12.5 -29.5t12.5 -29.5
t31.5 -11.5q18 0 30.5 11.5t12.5 29.5t-12.5 29.5t-30.5 11.5q-19 0 -31.5 -11.5zM238 398.5q21 18.5 21 44.5t-20.5 45t-50.5 19q-31 0 -51.5 -18.5t-20.5 -45.5q0 -26 21 -44.5t51 -18.5q29 0 50 18.5z" />
    <glyph glyph-name="nine.numr" horiz-adv-x="374" 
d="M300.5 670.5q45.5 -42.5 45.5 -109.5q0 -36 -13.5 -65.5t-36.5 -66.5l-78 -123l-101 -1l75 112q-9 -3 -26 -3q-41 0 -74.5 19.5t-52.5 53t-19 74.5q0 42 21.5 77t58.5 55t83 20q72 0 117.5 -42.5zM235.5 512q21.5 21 21.5 51q0 29 -21.5 49.5t-52.5 20.5t-53 -20.5
t-22 -49.5q0 -30 22 -51t53 -21t52.5 21z" />
    <glyph glyph-name="zero.superior" horiz-adv-x="419" 
d="M117 390.5q-41 26.5 -64 74t-23 107.5t23 107t64 73.5t93 26.5t92.5 -26.5t63.5 -73.5t23 -107t-23 -107.5t-63.5 -74t-92.5 -26.5t-93 26.5zM275.5 480q25.5 36 25.5 92q0 55 -25.5 91t-65.5 36t-65.5 -36t-25.5 -91q0 -56 25.5 -92t65.5 -36t65.5 36z" />
    <glyph glyph-name="one.superior" horiz-adv-x="228" 
d="M177 793v-424h-89v246h-83z" />
    <glyph glyph-name="two.superior" horiz-adv-x="343" 
d="M184 447h120v-78h-289l145 178q6 7 23.5 28t27.5 39.5t10 33.5q0 23 -16.5 36.5t-44.5 13.5q-47 0 -74 -42l-62 48q20 33 57.5 53.5t78.5 20.5q68 0 109 -34t41 -91q0 -39 -23 -74.5t-60 -80.5z" />
    <glyph glyph-name="three.superior" horiz-adv-x="357" 
d="M106 452.5q21 -10.5 54 -10.5q36 0 58 18.5t22 47.5q0 30 -24 49t-62 19q-17 0 -36 -1t-32 -3l85 121h-111v77h258l-99 -133q51 -11 80.5 -43.5t29.5 -85.5q0 -41 -22.5 -74.5t-61 -52.5t-85.5 -19q-88 0 -146 58l52 62q19 -19 40 -29.5z" />
    <glyph glyph-name="four.superior" horiz-adv-x="383" 
d="M304 505h54v-77h-54v-60h-88v60h-208l296 362v-285zM225 597l-88 -111h88v111z" />
    <glyph glyph-name="five.superior" horiz-adv-x="354" 
d="M108 451.5q21 -9.5 54 -9.5q36 0 58.5 18.5t22.5 47.5q0 26 -23 42t-61 16q-51 0 -103 -8l34 212h194v-77h-132l-9 -49q10 2 30 2q73 0 116 -37t43 -101q0 -40 -22.5 -73.5t-61.5 -53t-86 -19.5q-50 0 -86 17t-60 41v8l53 51q18 -18 39 -27.5z" />
    <glyph glyph-name="six.superior" horiz-adv-x="374" 
d="M73.5 404q-45.5 42 -45.5 109q0 36 13.5 65.5t36.5 66.5l78 124l101 1l-75 -113q9 3 26 3q41 0 74.5 -19.5t52.5 -53t19 -74.5q0 -42 -21.5 -76.5t-58.5 -54.5t-83 -20q-72 0 -117.5 42zM138.5 562q-21.5 -21 -21.5 -51q0 -29 21.5 -49t52.5 -20t53 20t22 49q0 30 -22 51
t-53 21t-52.5 -21z" />
    <glyph glyph-name="seven.superior" horiz-adv-x="303" 
d="M24 692v79h267l-150 -402h-96l123 323h-144z" />
    <glyph glyph-name="eight.superior" horiz-adv-x="376" 
d="M329 564.5q20 -27.5 20 -59.5q0 -39 -21.5 -72t-58.5 -52t-80 -19q-70 0 -115.5 40t-45.5 103q0 34 19 61t51 44q-27 25 -27 63q0 46 33.5 76t84.5 30q50 0 83.5 -30t33.5 -76q0 -37 -29 -64q32 -17 52 -44.5zM157.5 703.5q-12.5 -11.5 -12.5 -29.5t12.5 -29.5
t31.5 -11.5q18 0 30.5 11.5t12.5 29.5t-12.5 29.5t-30.5 11.5q-19 0 -31.5 -11.5zM239 460.5q21 18.5 21 44.5t-20.5 45t-50.5 19q-31 0 -51.5 -18.5t-20.5 -45.5q0 -26 21 -44.5t51 -18.5q29 0 50 18.5z" />
    <glyph glyph-name="nine.superior" horiz-adv-x="374" 
d="M300.5 734.5q45.5 -42.5 45.5 -109.5q0 -36 -13.5 -65.5t-36.5 -66.5l-78 -123l-101 -1l75 112q-9 -3 -26 -3q-41 0 -74.5 19.5t-52.5 53t-19 74.5q0 42 21.5 77t58.5 55t83 20q72 0 117.5 -42.5zM235.5 576q21.5 21 21.5 51q0 29 -21.5 49.5t-52.5 20.5t-53 -20.5
t-22 -49.5q0 -30 22 -51t53 -21t52.5 21z" />
    <glyph glyph-name="fraction" unicode="&#x2044;" horiz-adv-x="200" 
d="M337 724l-375 -724h-97l376 724h96z" />
    <glyph glyph-name="onehalf" unicode="&#xbd;" horiz-adv-x="746" 
d="M570 724l-375 -724h-97l376 724h96zM579 78h120v-78h-289l145 178q6 7 23.5 28t27.5 39.5t10 33.5q0 23 -16.5 36.5t-44.5 13.5q-47 0 -74 -42l-62 48q20 33 57.5 53.5t78.5 20.5q68 0 109 -34t41 -91q0 -39 -23 -74.5t-60 -80.5zM197 731v-424h-89v246h-83z" />
    <glyph glyph-name="uni2189" unicode="&#x2189;" horiz-adv-x="871" 
d="M117 326.5q-41 26.5 -64 74t-23 107.5t23 107t64 73.5t93 26.5t92.5 -26.5t63.5 -73.5t23 -107t-23 -107.5t-63.5 -74t-92.5 -26.5t-93 26.5zM275.5 416q25.5 36 25.5 92q0 55 -25.5 91t-65.5 36t-65.5 -36t-25.5 -91q0 -56 25.5 -92t65.5 -36t65.5 36zM612 82.5
q21 -10.5 54 -10.5q36 0 58 18.5t22 47.5q0 30 -24 49t-62 19q-17 0 -36 -1t-32 -3l85 121h-111v77h258l-99 -133q51 -11 80.5 -43.5t29.5 -85.5q0 -41 -22.5 -74.5t-61 -52.5t-85.5 -19q-88 0 -146 58l52 62q19 -19 40 -29.5zM689 724l-375 -724h-97l376 724h96z" />
    <glyph glyph-name="onethird" unicode="&#x2153;" horiz-adv-x="752" 
d="M567 724l-375 -724h-97l376 724h96zM196 731v-424h-89v246h-83zM489 82.5q21 -10.5 54 -10.5q36 0 58 18.5t22 47.5q0 30 -24 49t-62 19q-17 0 -36 -1t-32 -3l85 121h-111v77h258l-99 -133q51 -11 80.5 -43.5t29.5 -85.5q0 -41 -22.5 -74.5t-61 -52.5t-85.5 -19
q-88 0 -146 58l52 62q19 -19 40 -29.5z" />
    <glyph glyph-name="twothirds" unicode="&#x2154;" horiz-adv-x="852" 
d="M672 724l-375 -724h-97l376 724h96zM200 386h120v-78h-289l145 178q6 7 23.5 28t27.5 39.5t10 33.5q0 23 -16.5 36.5t-44.5 13.5q-47 0 -74 -42l-62 48q20 33 57.5 53.5t78.5 20.5q68 0 109 -34t41 -91q0 -39 -23 -74.5t-60 -80.5zM594 82.5q21 -10.5 54 -10.5
q36 0 58 18.5t22 47.5q0 30 -24 49t-62 19q-17 0 -36 -1t-32 -3l85 121h-111v77h258l-99 -133q51 -11 80.5 -43.5t29.5 -85.5q0 -41 -22.5 -74.5t-61 -52.5t-85.5 -19q-88 0 -146 58l52 62q19 -19 40 -29.5z" />
    <glyph glyph-name="onequarter" unicode="&#xbc;" horiz-adv-x="685" 
d="M593 137h54v-77h-54v-60h-88v60h-208l296 362v-285zM514 229l-88 -111h88v111zM570 724l-375 -724h-97l376 724h96zM197 731v-424h-89v246h-83z" />
    <glyph glyph-name="threequarters" unicode="&#xbe;" horiz-adv-x="792" 
d="M660 724l-375 -724h-97l376 724h96zM120 389.5q21 -10.5 54 -10.5q36 0 58 18.5t22 47.5q0 30 -24 49t-62 19q-17 0 -36 -1t-32 -3l85 121h-111v77h258l-99 -133q51 -11 80.5 -43.5t29.5 -85.5q0 -41 -22.5 -74.5t-61 -52.5t-85.5 -19q-88 0 -146 58l52 62
q19 -19 40 -29.5zM702 137h54v-77h-54v-60h-88v60h-208l296 362v-285zM623 229l-88 -111h88v111z" />
    <glyph glyph-name="uni2155" unicode="&#x2155;" horiz-adv-x="735" 
d="M572 724l-375 -724h-97l376 724h96zM197 731v-424h-89v246h-83zM476 81.5q21 -9.5 54 -9.5q36 0 58.5 18.5t22.5 47.5q0 26 -23 42t-61 16q-51 0 -103 -8l34 212h194v-77h-132l-9 -49q10 2 30 2q73 0 116 -37t43 -101q0 -40 -22.5 -73.5t-61.5 -53t-86 -19.5
q-50 0 -86 17t-60 41v8l53 51q18 -18 39 -27.5z" />
    <glyph glyph-name="uni2156" unicode="&#x2156;" horiz-adv-x="837" 
d="M684 724l-375 -724h-97l376 724h96zM201 386h120v-78h-289l145 178q6 7 23.5 28t27.5 39.5t10 33.5q0 23 -16.5 36.5t-44.5 13.5q-47 0 -74 -42l-62 48q20 33 57.5 53.5t78.5 20.5q68 0 109 -34t41 -91q0 -39 -23 -74.5t-60 -80.5zM583 81.5q21 -9.5 54 -9.5
q36 0 58.5 18.5t22.5 47.5q0 26 -23 42t-61 16q-51 0 -103 -8l34 212h194v-77h-132l-9 -49q10 2 30 2q73 0 116 -37t43 -101q0 -40 -22.5 -73.5t-61.5 -53t-86 -19.5q-50 0 -86 17t-60 41v8l53 51q18 -18 39 -27.5z" />
    <glyph glyph-name="uni2157" unicode="&#x2157;" horiz-adv-x="812" 
d="M648 724l-375 -724h-97l376 724h96zM119 389.5q21 -10.5 54 -10.5q36 0 58 18.5t22 47.5q0 30 -24 49t-62 19q-17 0 -36 -1t-32 -3l85 121h-111v77h258l-99 -133q51 -11 80.5 -43.5t29.5 -85.5q0 -41 -22.5 -74.5t-61 -52.5t-85.5 -19q-88 0 -146 58l52 62
q19 -19 40 -29.5zM554 81.5q21 -9.5 54 -9.5q36 0 58.5 18.5t22.5 47.5q0 26 -23 42t-61 16q-51 0 -103 -8l34 212h194v-77h-132l-9 -49q10 2 30 2q73 0 116 -37t43 -101q0 -40 -22.5 -73.5t-61.5 -53t-86 -19.5q-50 0 -86 17t-60 41v8l53 51q18 -18 39 -27.5z" />
    <glyph glyph-name="uni2158" unicode="&#x2158;" horiz-adv-x="841" 
d="M319 445h54v-77h-54v-60h-88v60h-208l296 362v-285zM240 537l-88 -111h88v111zM575 81.5q21 -9.5 54 -9.5q36 0 58.5 18.5t22.5 47.5q0 26 -23 42t-61 16q-51 0 -103 -8l34 212h194v-77h-132l-9 -49q10 2 30 2q73 0 116 -37t43 -101q0 -40 -22.5 -73.5t-61.5 -53
t-86 -19.5q-50 0 -86 17t-60 41v8l53 51q18 -18 39 -27.5zM680 724l-375 -724h-97l376 724h96z" />
    <glyph glyph-name="uni2159" unicode="&#x2159;" horiz-adv-x="720" 
d="M569 724l-375 -724h-97l376 724h96zM197 731v-424h-89v246h-83zM408.5 34q-45.5 42 -45.5 109q0 36 13.5 65.5t36.5 66.5l78 124l101 1l-75 -113q9 3 26 3q41 0 74.5 -19.5t52.5 -53t19 -74.5q0 -42 -21.5 -76.5t-58.5 -54.5t-83 -20q-72 0 -117.5 42zM473.5 192
q-21.5 -21 -21.5 -51q0 -29 21.5 -49t52.5 -20t53 20t22 49q0 30 -22 51t-53 21t-52.5 -21z" />
    <glyph glyph-name="uni215A" unicode="&#x215a;" horiz-adv-x="803" 
d="M492.5 34q-45.5 42 -45.5 109q0 36 13.5 65.5t36.5 66.5l78 124l101 1l-75 -113q9 3 26 3q41 0 74.5 -19.5t52.5 -53t19 -74.5q0 -42 -21.5 -76.5t-58.5 -54.5t-83 -20q-72 0 -117.5 42zM557.5 192q-21.5 -21 -21.5 -51q0 -29 21.5 -49t52.5 -20t53 20t22 49q0 30 -22 51
t-53 21t-52.5 -21zM658 724l-375 -724h-97l376 724h96zM120 389.5q21 -9.5 54 -9.5q36 0 58.5 18.5t22.5 47.5q0 26 -23 42t-61 16q-51 0 -103 -8l34 212h194v-77h-132l-9 -49q10 2 30 2q73 0 116 -37t43 -101q0 -40 -22.5 -73.5t-61.5 -53t-86 -19.5q-50 0 -86 17t-60 41v8
l53 51q18 -18 39 -27.5z" />
    <glyph glyph-name="uni2150" unicode="&#x2150;" horiz-adv-x="741" 
d="M572 724l-375 -724h-97l376 724h96zM448 323v79h267l-150 -402h-96l123 323h-144zM197 731v-424h-89v246h-83z" />
    <glyph glyph-name="oneeighth" unicode="&#x215b;" horiz-adv-x="739" 
d="M561 711l-375 -724h-97l376 724h96zM197 731v-424h-89v246h-83zM687 194.5q20 -27.5 20 -59.5q0 -39 -21.5 -72t-58.5 -52t-80 -19q-70 0 -115.5 40t-45.5 103q0 34 19 61t51 44q-27 25 -27 63q0 46 33.5 76t84.5 30q50 0 83.5 -30t33.5 -76q0 -37 -29 -64
q32 -17 52 -44.5zM515.5 333.5q-12.5 -11.5 -12.5 -29.5t12.5 -29.5t31.5 -11.5q18 0 30.5 11.5t12.5 29.5t-12.5 29.5t-30.5 11.5q-19 0 -31.5 -11.5zM597 90.5q21 18.5 21 44.5t-20.5 45t-50.5 19q-31 0 -51.5 -18.5t-20.5 -45.5q0 -26 21 -44.5t51 -18.5q29 0 50 18.5z
" />
    <glyph glyph-name="threeeighths" unicode="&#x215c;" horiz-adv-x="809" 
d="M649 724l-375 -724h-97l376 724h96zM119 389.5q21 -10.5 54 -10.5q36 0 58 18.5t22 47.5q0 30 -24 49t-62 19q-17 0 -36 -1t-32 -3l85 121h-111v77h258l-99 -133q51 -11 80.5 -43.5t29.5 -85.5q0 -41 -22.5 -74.5t-61 -52.5t-85.5 -19q-88 0 -146 58l52 62
q19 -19 40 -29.5zM758 194.5q20 -27.5 20 -59.5q0 -39 -21.5 -72t-58.5 -52t-80 -19q-70 0 -115.5 40t-45.5 103q0 34 19 61t51 44q-27 25 -27 63q0 46 33.5 76t84.5 30q50 0 83.5 -30t33.5 -76q0 -37 -29 -64q32 -17 52 -44.5zM586.5 333.5q-12.5 -11.5 -12.5 -29.5
t12.5 -29.5t31.5 -11.5q18 0 30.5 11.5t12.5 29.5t-12.5 29.5t-30.5 11.5q-19 0 -31.5 -11.5zM668 90.5q21 18.5 21 44.5t-20.5 45t-50.5 19q-31 0 -51.5 -18.5t-20.5 -45.5q0 -26 21 -44.5t51 -18.5q29 0 50 18.5z" />
    <glyph glyph-name="fiveeighths" unicode="&#x215d;" horiz-adv-x="814" 
d="M120 389.5q21 -9.5 54 -9.5q36 0 58.5 18.5t22.5 47.5q0 26 -23 42t-61 16q-51 0 -103 -8l34 212h194v-77h-132l-9 -49q10 2 30 2q73 0 116 -37t43 -101q0 -40 -22.5 -73.5t-61.5 -53t-86 -19.5q-50 0 -86 17t-60 41v8l53 51q18 -18 39 -27.5zM658 724l-375 -724h-97
l376 724h96zM763 194.5q20 -27.5 20 -59.5q0 -39 -21.5 -72t-58.5 -52t-80 -19q-70 0 -115.5 40t-45.5 103q0 34 19 61t51 44q-27 25 -27 63q0 46 33.5 76t84.5 30q50 0 83.5 -30t33.5 -76q0 -37 -29 -64q32 -17 52 -44.5zM591.5 333.5q-12.5 -11.5 -12.5 -29.5t12.5 -29.5
t31.5 -11.5q18 0 30.5 11.5t12.5 29.5t-12.5 29.5t-30.5 11.5q-19 0 -31.5 -11.5zM673 90.5q21 18.5 21 44.5t-20.5 45t-50.5 19q-31 0 -51.5 -18.5t-20.5 -45.5q0 -26 21 -44.5t51 -18.5q29 0 50 18.5z" />
    <glyph glyph-name="seveneighths" unicode="&#x215e;" horiz-adv-x="719" 
d="M39 630v79h267l-150 -402h-96l123 323h-144zM670 194.5q20 -27.5 20 -59.5q0 -39 -21.5 -72t-58.5 -52t-80 -19q-70 0 -115.5 40t-45.5 103q0 34 19 61t51 44q-27 25 -27 63q0 46 33.5 76t84.5 30q50 0 83.5 -30t33.5 -76q0 -37 -29 -64q32 -17 52 -44.5zM498.5 333.5
q-12.5 -11.5 -12.5 -29.5t12.5 -29.5t31.5 -11.5q18 0 30.5 11.5t12.5 29.5t-12.5 29.5t-30.5 11.5q-19 0 -31.5 -11.5zM580 90.5q21 18.5 21 44.5t-20.5 45t-50.5 19q-31 0 -51.5 -18.5t-20.5 -45.5q0 -26 21 -44.5t51 -18.5q29 0 50 18.5zM555 724l-375 -724h-97l376 724
h96z" />
    <glyph glyph-name="uni2151" unicode="&#x2151;" horiz-adv-x="765" 
d="M569 724l-375 -724h-97l376 724h96zM197 731v-424h-89v246h-83zM687.5 365.5q45.5 -42.5 45.5 -109.5q0 -36 -13.5 -65.5t-36.5 -66.5l-78 -123l-101 -1l75 112q-9 -3 -26 -3q-41 0 -74.5 19.5t-52.5 53t-19 74.5q0 42 21.5 77t58.5 55t83 20q72 0 117.5 -42.5z
M622.5 207q21.5 21 21.5 51q0 29 -21.5 49.5t-52.5 20.5t-53 -20.5t-22 -49.5q0 -30 22 -51t53 -21t52.5 21z" />
    <glyph glyph-name="uni2152" unicode="&#x2152;" horiz-adv-x="999" 
d="M570 724l-375 -724h-97l376 724h96zM197 731v-424h-89v246h-83zM554 424v-424h-89v246h-83zM694 19.5q-41 26.5 -64 74t-23 107.5t23 107t64 73.5t93 26.5t92.5 -26.5t63.5 -73.5t23 -107t-23 -107.5t-63.5 -74t-92.5 -26.5t-93 26.5zM852.5 109q25.5 36 25.5 92
q0 55 -25.5 91t-65.5 36t-65.5 -36t-25.5 -91q0 -56 25.5 -92t65.5 -36t65.5 36z" />
    <glyph glyph-name="asterisk" unicode="*" horiz-adv-x="443" 
d="M149 468l-116 34l25 91l119 -40l-5 127h99l-4 -127l118 40l25 -91l-116 -34l76 -97l-77 -55l-71 106l-72 -106l-77 55z" />
    <glyph glyph-name="backslash" unicode="\" horiz-adv-x="456" 
d="M148 724l285 -724h-127l-284 724h126z" />
    <glyph glyph-name="periodcentered" unicode="&#xb7;" horiz-adv-x="267" 
d="M71.5 240.5q-26.5 26.5 -26.5 61.5q0 36 26.5 62.5t62.5 26.5q35 0 61.5 -26t26.5 -61q0 -36 -26 -63t-62 -27t-62.5 26.5z" />
    <glyph glyph-name="bullet" unicode="&#x2022;" horiz-adv-x="392" 
d="M131 187.5q-30 17.5 -47.5 47.5t-17.5 66q0 35 17.5 65t47.5 47.5t65 17.5t65 -17.5t47.5 -47.5t17.5 -65q0 -36 -17.5 -66t-47.5 -47.5t-65 -17.5t-65 17.5z" />
    <glyph glyph-name="colon" unicode=":" horiz-adv-x="287" 
d="M81.5 14.5q-26.5 26.5 -26.5 61.5q0 36 26.5 62.5t62.5 26.5q35 0 61.5 -26t26.5 -61q0 -36 -26 -63t-62 -27t-62.5 26.5zM81.5 376.5q-26.5 26.5 -26.5 61.5q0 36 26.5 62.5t62.5 26.5q35 0 61.5 -26t26.5 -61q0 -36 -26 -63t-62 -27t-62.5 26.5z" />
    <glyph glyph-name="comma" unicode="," horiz-adv-x="248" 
d="M57 -148v301h144l-66 -301h-78z" />
    <glyph glyph-name="ellipsis" unicode="&#x2026;" horiz-adv-x="745" 
d="M556.5 14.5q-26.5 26.5 -26.5 61.5q0 36 26.5 62.5t62.5 26.5q35 0 61.5 -26t26.5 -61q0 -36 -26 -63t-62 -27t-62.5 26.5zM64.5 14.5q-26.5 26.5 -26.5 61.5q0 36 26.5 62.5t62.5 26.5q35 0 61.5 -26t26.5 -61q0 -36 -26 -63t-62 -27t-62.5 26.5zM310.5 14.5
q-26.5 26.5 -26.5 61.5q0 36 26.5 62.5t62.5 26.5q35 0 61.5 -26t26.5 -61q0 -36 -26 -63t-62 -27t-62.5 26.5z" />
    <glyph glyph-name="exclam" unicode="!" horiz-adv-x="278" 
d="M204 724v-494h-130v494h130zM76.5 14.5q-26.5 26.5 -26.5 61.5q0 36 26.5 62.5t62.5 26.5q35 0 61.5 -26t26.5 -61q0 -36 -26 -63t-62 -27t-62.5 26.5z" />
    <glyph glyph-name="exclamdown" unicode="&#xa1;" horiz-adv-x="267" 
d="M199 -209v494h-130v-494h130zM71.5 500.5q-26.5 -26.5 -26.5 -61.5q0 -36 26.5 -62.5t62.5 -26.5q35 0 61.5 26t26.5 61q0 36 -26 63t-62 27t-62.5 -26.5z" />
    <glyph glyph-name="numbersign" unicode="#" horiz-adv-x="672" 
d="M538 466l-51 -208h85v-97h-108l-39 -161h-106l39 161h-143l-39 -161h-106l39 161h-77v97h101l51 208h-84v97h108l39 161h104l-39 -161h145l39 161h104l-39 -161h79v-97h-102zM433 466h-144l-51 -208h144z" />
    <glyph glyph-name="period" unicode="." horiz-adv-x="253" 
d="M64.5 14.5q-26.5 26.5 -26.5 61.5q0 36 26.5 62.5t62.5 26.5q35 0 61.5 -26t26.5 -61q0 -36 -26 -63t-62 -27t-62.5 26.5z" />
    <glyph glyph-name="question" unicode="?" horiz-adv-x="461" 
d="M94.5 701q44.5 34 112.5 34q57 0 105.5 -22.5t77.5 -63.5t29 -94q0 -93 -98 -216l-88 -112l-92 71l84 107q28 37 46 70t18 68q0 30 -23.5 48.5t-58.5 18.5q-33 0 -58 -19.5t-37 -52.5l-86 76q24 53 68.5 87zM147.5 14.5q-26.5 26.5 -26.5 61.5q0 36 26.5 62.5t62.5 26.5
q35 0 61.5 -26t26.5 -61q0 -36 -26 -63t-62 -27t-62.5 26.5z" />
    <glyph glyph-name="questiondown" unicode="&#xbf;" horiz-adv-x="454" 
d="M308.5 500.5q26.5 -26.5 26.5 -61.5q0 -36 -26.5 -62.5t-62.5 -26.5q-35 0 -61.5 26t-26.5 61q0 36 26 63t62 27t62.5 -26.5zM361.5 -186q-44.5 -34 -112.5 -34q-57 0 -105.5 22.5t-77.5 63.5t-29 94q0 93 98 216l88 112l92 -71l-84 -107q-28 -37 -46 -70t-18 -68
q0 -30 23.5 -48.5t58.5 -18.5q33 0 58 19.5t37 52.5l86 -76q-24 -53 -68.5 -87z" />
    <glyph glyph-name="quotedbl" unicode="&#x22;" horiz-adv-x="404" 
d="M171 840l-13 -283h-101l-14 283h128zM360 840l-13 -283h-101l-14 283h128z" />
    <glyph glyph-name="quotesingle" unicode="'" horiz-adv-x="215" 
d="M171 840l-13 -283h-101l-14 283h128z" />
    <glyph glyph-name="semicolon" unicode=";" horiz-adv-x="287" 
d="M83.5 376.5q-26.5 26.5 -26.5 61.5q0 36 26.5 62.5t62.5 26.5q35 0 61.5 -26t26.5 -61q0 -36 -26 -63t-62 -27t-62.5 26.5zM153 -143h-82v291h149v-20z" />
    <glyph glyph-name="slash" unicode="/" horiz-adv-x="484" 
d="M463 724l-325 -724h-116l324 724h117z" />
    <glyph glyph-name="underscore" unicode="_" horiz-adv-x="500" 
d="M500 -40v-96h-500v96h500z" />
    <glyph glyph-name="periodcentered.case" horiz-adv-x="263" 
d="M69.5 278.5q-26.5 26.5 -26.5 61.5q0 36 26.5 62.5t62.5 26.5q35 0 61.5 -26t26.5 -61q0 -36 -26 -63t-62 -27t-62.5 26.5z" />
    <glyph glyph-name="bullet.case" horiz-adv-x="399" 
d="M102 244.5q-37 37.5 -37 94.5q0 56 37 93t97 37t97.5 -37t37.5 -93q0 -57 -37.5 -94.5t-97.5 -37.5t-97 37.5z" />
    <glyph glyph-name="exclamdown.case" horiz-adv-x="277" 
d="M204 -44v494h-130v-494h130zM76.5 665.5q-26.5 -26.5 -26.5 -61.5q0 -36 26.5 -62.5t62.5 -26.5q35 0 61.5 26t26.5 61q0 36 -26 63t-62 27t-62.5 -26.5z" />
    <glyph glyph-name="questiondown.case" horiz-adv-x="461" 
d="M313.5 665.5q26.5 -26.5 26.5 -61.5q0 -36 -26.5 -62.5t-62.5 -26.5q-35 0 -61.5 26t-26.5 61q0 36 26 63t62 27t62.5 -26.5zM366.5 -21q-44.5 -34 -112.5 -34q-57 0 -105.5 22.5t-77.5 63.5t-29 94q0 93 98 216l88 112l92 -71l-84 -107q-28 -37 -46 -70t-18 -68
q0 -30 23.5 -48.5t58.5 -18.5q33 0 58 19.5t37 52.5l86 -76q-24 -53 -68.5 -87z" />
    <glyph glyph-name="braceleft" unicode="{" horiz-adv-x="320" 
d="M130.5 -124q-43.5 41 -43.5 119v226l-70 100l70 100v226q0 78 43.5 119t120.5 41h48v-98h-33q-36 0 -54.5 -17t-18.5 -59v-239l-58 -73l58 -73v-239q0 -42 18.5 -59t54.5 -17h33v-98h-48q-77 0 -120.5 41z" />
    <glyph glyph-name="braceright" unicode="}" horiz-adv-x="320" 
d="M189.5 -124q43.5 41 43.5 119v226l70 100l-70 100v226q0 78 -43.5 119t-120.5 41h-48v-98h33q36 0 54.5 -17t18.5 -59v-239l58 -73l-58 -73v-239q0 -42 -18.5 -59t-54.5 -17h-33v-98h48q77 0 120.5 41z" />
    <glyph glyph-name="bracketleft" unicode="[" horiz-adv-x="316" 
d="M294 794v-97h-116v-752h116v-97h-222v946h222z" />
    <glyph glyph-name="bracketright" unicode="]" horiz-adv-x="316" 
d="M22 794v-97h116v-752h-116v-97h222v946h-222z" />
    <glyph glyph-name="parenleft" unicode="(" horiz-adv-x="302" 
d="M193.5 72q38.5 -128 92.5 -205l-94 -50q-38 52 -74 133t-59 178t-23 193t23 193t59 178t74 133l94 -50q-54 -77 -92.5 -205t-38.5 -249t38.5 -249z" />
    <glyph glyph-name="parenright" unicode=")" horiz-adv-x="302" 
d="M108.5 72q-38.5 -128 -92.5 -205l94 -50q38 52 74 133t59 178t23 193t-23 193t-59 178t-74 133l-94 -50q54 -77 92.5 -205t38.5 -249t-38.5 -249z" />
    <glyph glyph-name="braceleft.case" horiz-adv-x="320" 
d="M130.5 -82q-43.5 41 -43.5 119v226l-70 100l70 100v226q0 78 43.5 119t120.5 41h48v-98h-33q-36 0 -54.5 -17t-18.5 -59v-239l-58 -73l58 -73v-239q0 -42 18.5 -59t54.5 -17h33v-98h-48q-77 0 -120.5 41z" />
    <glyph glyph-name="braceright.case" horiz-adv-x="320" 
d="M21 -123v98h33q36 0 54.5 17t18.5 59v239l58 73l-58 73v239q0 42 -18.5 59t-54.5 17h-33v98h48q77 0 120.5 -41t43.5 -119v-226l70 -100l-70 -100v-226q0 -78 -43.5 -119t-120.5 -41h-48z" />
    <glyph glyph-name="bracketleft.case" horiz-adv-x="315" 
d="M294 835v-97h-116v-752h116v-97h-222v946h222z" />
    <glyph glyph-name="bracketright.case" horiz-adv-x="315" 
d="M243 -111h-222v97h116v752h-116v97h222v-946z" />
    <glyph glyph-name="parenleft.case" horiz-adv-x="302" 
d="M193.5 117q38.5 -128 92.5 -205l-94 -50q-38 52 -74 133t-59 178t-23 193t23 193t59 178t74 133l94 -50q-54 -77 -92.5 -205t-38.5 -249t38.5 -249z" />
    <glyph glyph-name="parenright.case" horiz-adv-x="302" 
d="M110 870q38 -52 74 -133t59 -178t23 -193t-23 -193t-59 -178t-74 -133l-94 50q54 77 92.5 205t38.5 249t-38.5 249t-92.5 205z" />
    <glyph glyph-name="emdash" unicode="&#x2014;" horiz-adv-x="865" 
d="M808 354v-102h-751v102h751z" />
    <glyph glyph-name="endash" unicode="&#x2013;" horiz-adv-x="577" 
d="M520 354v-102h-463v102h463z" />
    <glyph glyph-name="figuredash" unicode="&#x2012;" 
d="M532 354v-102h-463v102h463z" />
    <glyph glyph-name="hyphen" unicode="-" horiz-adv-x="406" 
d="M349 354v-102h-292v102h292z" />
    <glyph glyph-name="uni00AD" unicode="&#xad;" horiz-adv-x="406" 
d="M349 354v-102h-292v102h292z" />
    <glyph glyph-name="uni2010" unicode="&#x2010;" horiz-adv-x="406" 
d="M349 354v-102h-292v102h292z" />
    <glyph glyph-name="uni2011" unicode="&#x2011;" horiz-adv-x="406" 
d="M349 354v-102h-292v102h292z" />
    <glyph glyph-name="emdash.case" horiz-adv-x="863" 
d="M807 391v-102h-751v102h751z" />
    <glyph glyph-name="endash.case" horiz-adv-x="575" 
d="M519 391v-102h-463v102h463z" />
    <glyph glyph-name="hyphen.case" horiz-adv-x="404" 
d="M348 391v-102h-292v102h292z" />
    <glyph glyph-name="uni2010.case" horiz-adv-x="404" 
d="M348 391v-102h-292v102h292z" />
    <glyph glyph-name="uni2011.case" horiz-adv-x="404" 
d="M348 391v-102h-292v102h292z" />
    <glyph glyph-name="guillemotleft" unicode="&#xab;" horiz-adv-x="608" 
d="M317 87h-120l-170 214l170 214h120l-166 -214zM580 87h-120l-170 214l170 214h120l-166 -214z" />
    <glyph glyph-name="guillemotright" unicode="&#xbb;" horiz-adv-x="608" 
d="M291 87h120l170 214l-170 214h-120l166 -214zM28 87h120l170 214l-170 214h-120l166 -214z" />
    <glyph glyph-name="guilsinglleft" unicode="&#x2039;" horiz-adv-x="345" 
d="M317 87h-120l-170 214l170 214h120l-166 -214z" />
    <glyph glyph-name="guilsinglright" unicode="&#x203a;" horiz-adv-x="345" 
d="M28 515h120l170 -214l-170 -214h-120l166 214z" />
    <glyph glyph-name="quotedblbase" unicode="&#x201e;" horiz-adv-x="433" 
d="M50 -231v286h147l-67 -286h-80zM259 -231v286h147l-67 -286h-80z" />
    <glyph glyph-name="quotedblleft" unicode="&#x201c;" horiz-adv-x="436" 
d="M176 840v-286h-147l67 286h80zM384 840v-286h-147l67 286h80z" />
    <glyph glyph-name="quotedblright" unicode="&#x201d;" horiz-adv-x="428" 
d="M52 554v286h147l-67 -286h-80zM261 554v286h147l-67 -286h-80z" />
    <glyph glyph-name="quoteleft" unicode="&#x2018;" horiz-adv-x="228" 
d="M176 840v-286h-147l67 286h80z" />
    <glyph glyph-name="quoteright" unicode="&#x2019;" horiz-adv-x="219" 
d="M52 554v286h147l-67 -286h-80z" />
    <glyph glyph-name="quotesinglbase" unicode="&#x201a;" horiz-adv-x="224" 
d="M197 55h-147v-286h80z" />
    <glyph glyph-name="guillemotleft.case" horiz-adv-x="611" 
d="M316 124h-120l-170 214l170 214h120l-166 -214zM579 124h-120l-170 214l170 214h120l-166 -214z" />
    <glyph glyph-name="guillemotright.case" horiz-adv-x="609" 
d="M292 125h120l170 214l-170 214h-120l166 -214zM29 125h120l170 214l-170 214h-120l166 -214z" />
    <glyph glyph-name="guilsinglleft.case" horiz-adv-x="347" 
d="M316 128h-120l-170 214l170 214h120l-166 -214z" />
    <glyph glyph-name="guilsinglright.case" horiz-adv-x="346" 
d="M29 557h120l170 -214l-170 -214h-120l166 214z" />
    <glyph glyph-name="anoteleia" unicode="&#x387;" horiz-adv-x="267" 
d="M71.5 240.5q-26.5 26.5 -26.5 61.5q0 36 26.5 62.5t62.5 26.5q35 0 61.5 -26t26.5 -61q0 -36 -26 -63t-62 -27t-62.5 26.5z" />
    <glyph glyph-name="uni037E" unicode="&#x37e;" horiz-adv-x="287" 
d="M83.5 376.5q-26.5 26.5 -26.5 61.5q0 36 26.5 62.5t62.5 26.5q35 0 61.5 -26t26.5 -61q0 -36 -26 -63t-62 -27t-62.5 26.5zM153 -143h-82v291h149v-20z" />
    <glyph glyph-name="uni2007" unicode="&#x2007;" 
 />
    <glyph glyph-name="uni2008" unicode="&#x2008;" horiz-adv-x="253" 
 />
    <glyph glyph-name="uni00A0" unicode="&#xa0;" horiz-adv-x="225" 
 />
    <glyph glyph-name="uni2009" unicode="&#x2009;" horiz-adv-x="80" 
 />
    <glyph glyph-name="uni200B" unicode="&#x200b;" horiz-adv-x="0" 
 />
    <glyph glyph-name="uniFEFF" unicode="&#xfeff;" horiz-adv-x="0" 
 />
    <glyph glyph-name="Euro" unicode="&#x20ac;" 
d="M550 156l33 -131q-76 -37 -165 -37q-114 0 -203.5 65t-127.5 171h-79l33 102h24q-2 24 -2 37q0 23 1 34h-56l33 102h45q37 107 127 173t205 66q91 0 171 -39l-43 -127q-63 44 -128 44q-60 0 -109 -32t-79 -85h291l-34 -102h-292q-2 -22 -2 -34q0 -19 3 -37h267l-35 -102
h-197q30 -52 78.5 -83t108.5 -31q71 0 132 46z" />
    <glyph glyph-name="cent" unicode="&#xa2;" 
d="M412.5 206.5q36.5 17.5 65.5 50.5l67 -99q-63 -67 -161 -82v-96h-122v97q-93 20 -147.5 92t-54.5 171t54.5 171t147.5 92v97h122v-96q98 -15 161 -82l-67 -99q-29 33 -65.5 50.5t-85.5 17.5q-62 0 -101 -41.5t-39 -109.5t39 -109.5t101 -41.5q49 0 85.5 17.5z" />
    <glyph glyph-name="currency" unicode="&#xa4;" 
d="M300 98q-54 0 -103 27l-68 -68l-74 73l67 67q-29 51 -29 105q0 53 29 104l-67 68l74 73l68 -68q52 27 103 27q49 0 103 -27l68 68l74 -73l-68 -68q30 -53 30 -104q0 -52 -30 -105l68 -67l-74 -73l-68 68q-51 -27 -103 -27zM370 230q28 29 28 72t-28 72t-70 29
t-69.5 -28.5t-27.5 -72.5t27.5 -72.5t69.5 -28.5t70 29z" />
    <glyph glyph-name="dollar" unicode="$" 
d="M498.5 75.5q-49.5 -58.5 -132.5 -78.5v-108h-127v103q-73 12 -123 53t-71 90l103 75q21 -47 60 -73.5t92 -26.5t85.5 30t32.5 79q0 78 -107 115l-64 23q-76 27 -116 75.5t-40 119.5q0 60 42 110.5t106 66.5v86h127v-89q83 -23 130 -92l-97 -76q-19 27 -47.5 42.5
t-60.5 15.5q-30 0 -50.5 -20t-20.5 -48q0 -23 16 -42t48 -30l61 -22q203 -74 203 -236q0 -84 -49.5 -142.5z" />
    <glyph glyph-name="florin" unicode="&#x192;" 
d="M246 437l16 123q11 81 53 127.5t128 46.5q42 0 70 -3v-118q-15 1 -45 1q-35 0 -53.5 -16t-22.5 -53l-14 -108h116v-111h-133l-22 -166q-23 -174 -183 -174q-41 0 -70 3v118q15 -1 45 -1q36 0 54.5 16.5t22.5 52.5l20 151h-116v111h134z" />
    <glyph glyph-name="sterling" unicode="&#xa3;" 
d="M353 573q-42 0 -70 -28t-28 -74q0 -39 17 -87h201v-110h-169q1 -9 1 -35q0 -31 -10.5 -67.5t-22.5 -57.5h254v-114h-440q33 70 60 145t27 125h-92v109h58q-14 49 -14 100q0 62 28 111t80 76.5t120 27.5q85 0 147 -53l-70 -99q-34 31 -77 31z" />
    <glyph glyph-name="uni20A9" unicode="&#x20a9;" 
d="M517 398l-18 -76h109v-102h-135l-54 -220h-7l-62 220h-100l-62 -220h-7l-54 220h-135v102h109l-18 76h-91v102h65l-55 224h111l47 -224h81l56 224h6l56 -224h81l47 224h111l-55 -224h65v-102h-91zM197 322l19 76h-35zM322 322l-22 76l-22 -76h44zM419 398h-35l19 -76z
" />
    <glyph glyph-name="uni20B9" unicode="&#x20b9;" 
d="M407 634q28 -29 40 -68h91v-89h-87q-13 -71 -69 -113t-139 -45l295 -319h-172l-295 327v86h145q41 0 67 16.5t37 47.5h-249l30 89h219q-11 30 -37 46.5t-67 16.5h-145l30 95h437v-90h-131z" />
    <glyph glyph-name="yen" unicode="&#xa5;" 
d="M600 721l-160 -353h70v-107h-118l-27 -60h145v-107h-145v-94h-130v94h-144v107h144l-27 60h-117v107h69l-160 353v3h152l148 -368l148 368h152v-3z" />
    <glyph glyph-name="uni20A9.cv01" horiz-adv-x="1024" 
d="M857 398l-26 -76h148v-102h-184l-82 -232h-36l-81 232h-170l-81 -232h-35l-82 232h-184v102h148l-27 76h-121v102h85l-79 224h126l77 -224h158l83 236h35l83 -236h158l77 224h125l-79 -224h86v-102h-122zM315 322h33l26 76h-85zM561 322l-26 76h-48l-26 -76h100zM734 398
h-85l26 -76h33z" />
    <glyph glyph-name="plus" unicode="+" 
d="M61 252v102h181v188h116v-188h181v-102h-181v-188h-116v188h-181z" />
    <glyph glyph-name="minus" unicode="&#x2212;" 
d="M539 354v-102h-479v102h479z" />
    <glyph glyph-name="multiply" unicode="&#xd7;" 
d="M221 303l-137 136l79 80l137 -138l136 138l80 -80l-137 -136l137 -136l-80 -80l-136 137l-137 -137l-79 80z" />
    <glyph glyph-name="divide" unicode="&#xf7;" 
d="M242 448q-25 25 -25 58q0 34 25 59t59 25q33 0 58 -24.5t25 -57.5q0 -34 -24.5 -59.5t-58.5 -25.5t-59 25zM539 354v-102h-479v102h479zM242 40q-25 25 -25 58q0 34 25 59t59 25q33 0 58 -24.5t25 -57.5q0 -34 -24.5 -59.5t-58.5 -25.5t-59 25z" />
    <glyph glyph-name="equal" unicode="=" 
d="M539 478v-102h-479v102h479zM539 229v-102h-479v102h479z" />
    <glyph glyph-name="notequal" unicode="&#x2260;" 
d="M383 376l-70 -147h226v-102h-275l-56 -117l-99 -1l56 118h-105v102h154l71 147h-225v102h274l56 118h98l-56 -118h107v-102h-156z" />
    <glyph glyph-name="greater" unicode="&#x3e;" 
d="M82 544v-127l252 -114l-252 -113v-128l479 241z" />
    <glyph glyph-name="less" unicode="&#x3c;" 
d="M518 544v-127l-252 -114l252 -113v-128l-479 241z" />
    <glyph glyph-name="greaterequal" unicode="&#x2265;" 
d="M68 313v-115l499 218l-499 218v-115l258 -103zM68 154v-102h479v102h-479z" />
    <glyph glyph-name="lessequal" unicode="&#x2264;" 
d="M532 313v-115l-499 218l499 218v-115l-258 -103zM532 154v-102h-479v102h479z" />
    <glyph glyph-name="plusminus" unicode="&#xb1;" 
d="M60 363v102h183v166h112v-166h184v-102h-184v-144h-112v144h-183zM539 153v-102h-479v102h479z" />
    <glyph glyph-name="approxequal" unicode="&#x2248;" 
d="M357.5 349q-29.5 7 -67.5 19q-40 12 -61 17t-41 5q-56 0 -124 -42h-3v110q61 41 123 41q30 0 59.5 -6.5t69.5 -19.5q35 -11 57 -16t43 -5q56 0 124 42h3v-110q-60 -42 -123 -42q-30 0 -59.5 7zM357.5 116q-29.5 7 -67.5 19q-40 12 -61 17t-41 5q-56 0 -124 -42h-3v110
q61 41 123 41q30 0 59.5 -6.5t69.5 -19.5q35 -11 57 -16t43 -5q56 0 124 42h3v-110q-60 -42 -123 -42q-30 0 -59.5 7z" />
    <glyph glyph-name="asciitilde" unicode="~" 
d="M357.5 229q-29.5 7 -67.5 19q-40 12 -61 17t-41 5q-56 0 -124 -42h-3v110q61 41 123 41q30 0 59.5 -6.5t69.5 -19.5q35 -11 57 -16t43 -5q56 0 124 42h3v-110q-60 -42 -123 -42q-30 0 -59.5 7z" />
    <glyph glyph-name="logicalnot" unicode="&#xac;" 
d="M55 290v102h479l-1 -251h-115v149h-363z" />
    <glyph glyph-name="infinity" unicode="&#x221e;" horiz-adv-x="789" 
d="M128.5 134.5q-40.5 25.5 -63.5 69.5t-23 98t23 98t63.5 69.5t89.5 25.5q50 0 92 -27.5t84 -84.5q43 57 84.5 84.5t92.5 27.5q49 0 89.5 -25.5t63.5 -69.5t23 -98t-23 -98t-63.5 -69.5t-89.5 -25.5q-51 0 -93 27t-84 85q-41 -57 -83 -84.5t-93 -27.5q-49 0 -89.5 25.5z
M336 302q-57 91 -108 91q-32 0 -56 -26.5t-24 -64.5t24 -64.5t56 -26.5q51 0 108 91zM618 237.5q24 26.5 24 64.5t-24 64.5t-56 26.5q-51 0 -108 -91q57 -91 108 -91q32 0 56 26.5z" />
    <glyph glyph-name="integral" unicode="&#x222b;" horiz-adv-x="435" 
d="M-7 -183v118q15 -1 45 -1q34 0 52 16.5t23 52.5l80 558q12 81 53.5 127.5t125.5 46.5q43 0 70 -3v-118q-15 1 -44 1q-34 0 -51.5 -16t-22.5 -53l-81 -558q-12 -81 -53.5 -127.5t-126.5 -46.5q-41 0 -70 3z" />
    <glyph glyph-name="product" unicode="&#x220f;" horiz-adv-x="715" 
d="M637 724v-897h-130v783h-299v-783h-130v897h559z" />
    <glyph glyph-name="summation" unicode="&#x2211;" horiz-adv-x="576" 
d="M27 724h505v-114h-305l168 -331l-168 -339h307v-113h-507l230 452z" />
    <glyph glyph-name="radical" unicode="&#x221a;" horiz-adv-x="542" 
d="M128 398l95 -261l206 587h137l-338 -884l-240 558h140z" />
    <glyph glyph-name="partialdiff" unicode="&#x2202;" horiz-adv-x="601" 
d="M155.5 717.5q48.5 17.5 108.5 17.5q87 0 153.5 -47.5t103.5 -138t37 -215.5q0 -100 -31.5 -178t-93 -122.5t-149.5 -44.5q-68 0 -126.5 34.5t-93 93.5t-34.5 128q0 71 31 128t83.5 89t115.5 32q51 0 92 -21.5t70 -57.5q-3 93 -46 145.5t-112 52.5q-64 0 -107 -37l-84 92
q34 32 82.5 49.5zM377 148.5q35 37.5 35 93.5q0 55 -35 92.5t-90 37.5t-90.5 -37.5t-35.5 -92.5q0 -56 35.5 -93.5t90.5 -37.5t90 37.5z" />
    <glyph glyph-name="percent" unicode="%" horiz-adv-x="842" 
d="M118.5 403q-41.5 24 -65.5 65t-24 89t24 89t65.5 65t90.5 24q50 0 91 -24t65 -65t24 -89t-24 -89t-65 -65t-91 -24q-49 0 -90.5 24zM673 724l-395 -724h-111l396 724h110zM269 497q25 26 25 60t-25 60t-60 26t-59.5 -26t-24.5 -60t24.5 -60t59.5 -26t60 26zM542.5 12
q-41.5 24 -65.5 65t-24 89t24 89t65.5 65t90.5 24q50 0 91 -24t65 -65t24 -89t-24 -89t-65 -65t-91 -24q-49 0 -90.5 24zM693 106q25 26 25 60q0 35 -25 61t-60 26t-59.5 -26t-24.5 -61q0 -34 24.5 -60t59.5 -26t60 26z" />
    <glyph glyph-name="perthousand" unicode="&#x2030;" horiz-adv-x="1241" 
d="M118.5 403q-41.5 24 -65.5 65t-24 89t24 89t65.5 65t90.5 24q50 0 91 -24t65 -65t24 -89t-24 -89t-65 -65t-91 -24q-49 0 -90.5 24zM673 724l-395 -724h-111l396 724h110zM269 497q25 26 25 60t-25 60t-60 26t-59.5 -26t-24.5 -60t24.5 -60t59.5 -26t60 26zM542.5 12
q-41.5 24 -65.5 65t-24 89t24 89t65.5 65t90.5 24q50 0 91 -24t65 -65t24 -89t-24 -89t-65 -65t-91 -24q-49 0 -90.5 24zM942.5 12q-41.5 24 -65.5 65t-24 89t24 89t65.5 65t90.5 24q50 0 91 -24t65 -65t24 -89t-24 -89t-65 -65t-91 -24q-49 0 -90.5 24zM693 106
q25 26 25 60q0 35 -25 61t-60 26t-59.5 -26t-24.5 -61q0 -34 24.5 -60t59.5 -26t60 26zM1093 106q25 26 25 60q0 35 -25 61t-60 26t-59.5 -26t-24.5 -61q0 -34 24.5 -60t59.5 -26t60 26z" />
    <glyph glyph-name="minus.case" 
d="M539 391v-102h-479v102h479z" />
    <glyph glyph-name="arrowup" unicode="&#x2191;" 
d="M300 582l-272 -271l65 -64l159 159v-406h96l-1 407l160 -160l65 64z" />
    <glyph glyph-name="uni2197" unicode="&#x2197;" 
d="M522.495 515.104l0.707031 -383.885l-91.1992 0.707031v224.816l-287.029 -287.03l-67.8691 67.8691l288.443 287.03h-226.23l-0.707031 91.1992z" />
    <glyph glyph-name="arrowright" unicode="&#x2192;" 
d="M591 296l-271 -272l-64 65l159 159h-406v96l407 -1l-160 160l64 65z" />
    <glyph glyph-name="uni2198" unicode="&#x2198;" 
d="M523.495 69.7832l0.707031 383.885l-91.1992 -0.707031v-224.816l-287.029 287.029l-67.8691 -67.8691l288.443 -287.029h-226.23l-0.707031 -91.1992z" />
    <glyph glyph-name="arrowdown" unicode="&#x2193;" 
d="M300 -12l-272 271l65 64l159 -159v406h96l-1 -407l160 160l65 -64z" />
    <glyph glyph-name="uni2199" unicode="&#x2199;" 
d="M76.3887 69.7832l-0.707031 383.885l91.1992 -0.707031v-224.816l287.03 287.029l67.8691 -67.8691l-288.444 -287.029h226.23l0.707031 -91.1992z" />
    <glyph glyph-name="arrowleft" unicode="&#x2190;" 
d="M9 296l271 -272l64 65l-159 159h406v96l-407 -1l160 160l-64 65z" />
    <glyph glyph-name="uni2196" unicode="&#x2196;" 
d="M77.3887 515.104l-0.707031 -383.885l91.1992 0.707031v224.816l287.03 -287.03l67.8691 67.8691l-288.444 287.03h226.23l0.707031 91.1992z" />
    <glyph glyph-name="H18533" unicode="&#x25cf;" 
d="M113.5 449q28.5 49 77.5 77.5t109 28.5t109 -28.5t77.5 -77.5t28.5 -109t-28.5 -109t-77.5 -77.5t-109 -28.5t-109 28.5t-77.5 77.5t-28.5 109t28.5 109z" />
    <glyph glyph-name="circle" unicode="&#x25cb;" 
d="M113.5 449q28.5 49 77.5 77.5t109 28.5t109 -28.5t77.5 -77.5t28.5 -109t-28.5 -109t-77.5 -77.5t-109 -28.5t-109 28.5t-77.5 77.5t-28.5 109t28.5 109zM218 254.5q32 -33.5 82 -33.5q49 0 81 33.5t32 85.5t-32 85.5t-81 33.5q-50 0 -82 -33.5t-32 -85.5t32 -85.5z" />
    <glyph glyph-name="lozenge" unicode="&#x25ca;" horiz-adv-x="603" 
d="M302 737l278 -406l-278 -406l-279 406zM302 130l136 200l-136 202l-135 -201z" />
    <glyph glyph-name="at" unicode="@" horiz-adv-x="1006" 
d="M264.5 -117q-108.5 60 -170.5 168t-62 246t61.5 248.5t169.5 173.5t244 63q132 0 238 -57t165.5 -155t59.5 -216q0 -92 -34 -160t-85 -103t-98 -35q-99 0 -137 69q-24 -30 -64 -49t-89 -19q-59 0 -107.5 30.5t-76.5 84.5t-28 120t28 120t76 85t106 31q41 0 74.5 -13.5
t54.5 -36.5v43h125v-298q0 -29 10.5 -45.5t31.5 -16.5q25 0 48.5 19.5t38.5 62t15 106.5q0 93 -44.5 169t-124.5 119.5t-183 43.5q-105 0 -188 -49.5t-129.5 -137t-46.5 -197.5q0 -109 46.5 -194t129.5 -132.5t188 -47.5q47 0 91.5 10.5t79.5 28.5l43 -91q-98 -48 -214 -48
q-134 0 -242.5 60zM411.5 383.5q-31.5 -34.5 -31.5 -90.5t31.5 -91t78.5 -35q48 0 79.5 35t31.5 91t-31.5 90.5t-79.5 34.5q-47 0 -78.5 -34.5z" />
    <glyph glyph-name="ampersand" unicode="&#x26;" horiz-adv-x="720" 
d="M713 296h-148v-52q0 -70 -34.5 -129t-94.5 -93t-134 -34q-80 0 -140.5 31.5t-93.5 87.5t-33 127q0 59 35 109t92 80q-33 24 -52 58.5t-19 73.5q0 49 26 91t73.5 66.5t106.5 24.5q53 0 87.5 -12.5t63.5 -32.5l-63 -100q-18 15 -39 23.5t-49 8.5q-32 0 -54 -20t-22 -49
q0 -34 23 -57t62 -24v-113q-36 0 -69 -16.5t-54 -45.5t-21 -65q0 -56 36.5 -94.5t103.5 -38.5q43 0 73.5 20.5t46.5 53t16 69.5v52h-107l203 218h30v-116h149v-102z" />
    <glyph glyph-name="paragraph" unicode="&#xb6;" horiz-adv-x="611" 
d="M569 592h-65v-758h-88v758h-81v-758h-88v453h-37q-81 0 -131.5 52.5t-50.5 139.5q0 58 23 103.5t64.5 71.5t94.5 26h359v-88z" />
    <glyph glyph-name="section" unicode="&#xa7;" horiz-adv-x="545" 
d="M467.5 81q22.5 -36 22.5 -77q0 -48 -30.5 -83.5t-82.5 -54t-113 -18.5q-66 0 -128 23.5t-91 58.5l84 87q19 -25 65 -42t83 -17q32 0 57.5 17t25.5 40q0 37 -69 64l-57 22q-61 24 -99.5 44.5t-66 57t-27.5 91.5q0 46 30 85.5t75 59.5q-40 28 -62.5 64t-22.5 77
q0 73 59 114.5t152 41.5q66 0 121 -23.5t83 -58.5l-84 -88q-20 26 -58.5 42.5t-74.5 16.5q-31 0 -49.5 -16t-18.5 -41q0 -36 69 -63l57 -22q61 -24 99.5 -45t66 -57.5t27.5 -90.5q0 -47 -30 -86.5t-75 -58.5q40 -28 62.5 -64zM198 245q27 -19 57.5 -31t38.5 -15
q17 3 37.5 16t34.5 32t14 40q0 26 -18 43.5t-36 25.5t-69 28q-28 -5 -57 -31t-29 -56q0 -33 27 -52z" />
    <glyph glyph-name="copyright" unicode="&#xa9;" horiz-adv-x="894" 
d="M241.5 15q-94.5 55 -150 149.5t-55.5 207.5q0 112 55.5 206t150 149t206.5 55q111 0 205.5 -55t149.5 -149t55 -206q0 -113 -55 -207.5t-149.5 -149.5t-205.5 -55q-112 0 -206.5 55zM606.5 95.5q71.5 42.5 113 115.5t41.5 161q0 87 -41.5 160t-113 115t-158.5 42
t-159 -42t-114 -115t-42 -160q0 -88 42 -161t114 -115.5t159 -42.5t158.5 42.5zM546.5 180.5q-44.5 -17.5 -95.5 -17.5q-64 0 -112.5 28.5t-74 76.5t-25.5 105t25.5 105t74 76.5t112.5 28.5q46 0 88 -14t71 -40l-42 -88q-19 21 -49 35.5t-62 14.5q-53 0 -84.5 -31.5
t-31.5 -86.5t31.5 -86t84.5 -31q33 0 62 14t48 34l53 -75q-29 -31 -73.5 -48.5z" />
    <glyph glyph-name="registered" unicode="&#xae;" horiz-adv-x="498" 
d="M140 384.5q-49 27.5 -77 76t-28 108.5t28 108.5t77 76t109 27.5t109 -27.5t77 -76t28 -108.5t-28 -108.5t-77 -76t-109 -27.5t-109 27.5zM358.5 458.5q42.5 43.5 42.5 110.5q0 66 -43 109.5t-109 43.5t-109 -43.5t-43 -109.5q0 -67 42.5 -110.5t109.5 -43.5t109.5 43.5z
M262 670q32 0 53.5 -18t21.5 -48q0 -37 -31 -57l44 -76v-3h-63l-38 73h-25v-73h-56v202h94zM273.5 591q7.5 5 7.5 13q0 9 -7.5 14.5t-16.5 5.5h-33v-38h33q9 0 16.5 5z" />
    <glyph glyph-name="uni2117" unicode="&#x2117;" horiz-adv-x="894" 
d="M241 14q-94 55 -149.5 149.5t-55.5 206.5q0 113 55.5 207.5t149.5 149.5t206 55t206 -55t149.5 -149.5t55.5 -207.5q0 -112 -55.5 -206.5t-149.5 -149.5t-206 -55t-206 55zM605.5 94.5q71.5 42.5 113 115.5t41.5 160q0 88 -41.5 161t-113 115.5t-158.5 42.5t-159 -42.5
t-113.5 -115.5t-41.5 -161q0 -87 41.5 -160t113.5 -115.5t159 -42.5t158.5 42.5zM469 571q72 0 118 -37t46 -105q0 -67 -47 -104t-117 -37h-65v-117h-105v400h170zM507.5 387.5q18.5 14.5 18.5 42.5q0 27 -18.5 41.5t-46.5 14.5h-57v-113h57q28 0 46.5 14.5z" />
    <glyph glyph-name="trademark" unicode="&#x2122;" horiz-adv-x="751" 
d="M517 651l166 126v-309h-79v153l-87 -66l-88 69v-156h-79v309zM32 698v72h273v-72h-97v-230h-79v230h-97z" />
    <glyph glyph-name="degree" unicode="&#xb0;" horiz-adv-x="381" 
d="M110 486q-37 22 -59 58.5t-22 78.5t22 78.5t59 58.5t80 22t80.5 -22t59.5 -58.5t22 -78.5t-22 -78.5t-59.5 -58.5t-80.5 -22t-80 22zM240 573q19 20 19 50t-19 50t-50 20t-50 -20t-19 -50t19 -50t50 -20t50 20z" />
    <glyph glyph-name="bar" unicode="|" horiz-adv-x="259" 
d="M187 770v-879h-115v879h115z" />
    <glyph glyph-name="brokenbar" unicode="&#xa6;" horiz-adv-x="252" 
d="M178 710v-361h-104v361h104zM178 196v-362h-104v362h104z" />
    <glyph glyph-name="dagger" unicode="&#x2020;" horiz-adv-x="474" 
d="M29 412v103h157v209h103v-209h156v-103h-156v-412h-103v412h-157z" />
    <glyph glyph-name="uni2113" unicode="&#x2113;" horiz-adv-x="460" 
d="M196 37.5q-51 43.5 -67 120.5l-101 -52v109l93 51v309q0 62 24.5 109.5t64.5 73.5t86 26q70 0 109.5 -42.5t39.5 -117.5q0 -130 -52 -228.5t-142 -162.5q0 -63 27.5 -97t81.5 -34h64v-102q-43 -6 -96 -6q-81 0 -132 43.5zM306 425.5q20 35.5 29.5 83.5t9.5 119
q0 30 -12.5 46.5t-34.5 16.5q-21 0 -34.5 -20t-13.5 -54v-264q36 37 56 72.5z" />
    <glyph glyph-name="daggerdbl" unicode="&#x2021;" horiz-adv-x="500" 
d="M42 171v103h157v138h-157v103h157v209h103v-209h156v-103h-156v-138h156v-103h-156v-171h-103v171h-157z" />
    <glyph glyph-name="uni2116" unicode="&#x2116;" horiz-adv-x="1130" 
d="M211 459l-1 -459h-130v736h40l443 -470l1 458h130v-736h-40zM834.5 434q-38.5 24 -58.5 62t-20 77q0 40 20 77t58.5 61t91.5 24t92 -24t59 -61t20 -77q0 -39 -20 -77t-59 -62t-92 -24t-91.5 24zM982.5 522q21.5 23 21.5 51t-21.5 50.5t-56.5 22.5t-56 -22.5t-21 -50.5
t21 -51t56 -23t56.5 23zM1074 359v-102h-290v102h290z" />
    <glyph glyph-name="estimated" unicode="&#x212e;" horiz-adv-x="801" 
d="M228 33q-87 47 -136.5 132t-49.5 196q0 109 48.5 194.5t131.5 132.5t183 47t183 -47t131.5 -132.5t48.5 -194.5v-19h-577v-239q44 -39 103.5 -59.5t129.5 -20.5q86 0 158.5 38t116.5 105l30 -23q-49 -74 -129.5 -115.5t-175.5 -41.5q-109 0 -196 47zM289.5 677.5
q-54.5 -20.5 -98.5 -57.5v-241h433v237q-45 40 -101 61t-118 21q-61 0 -115.5 -20.5z" />
    <glyph glyph-name="asciicircum" unicode="^" 
d="M299 724l240 -305v-3h-117l-123 165l-121 -165h-117v3z" />
    <glyph glyph-name="minute" unicode="&#x2032;" horiz-adv-x="225" 
d="M40 486l39 283h133l-92 -283h-80z" />
    <glyph glyph-name="second" unicode="&#x2033;" horiz-adv-x="416" 
d="M40 487l39 283h133l-92 -283h-80zM231 487l39 283h133l-92 -283h-80z" />
    <glyph glyph-name="uni0326" unicode="&#x326;" horiz-adv-x="0" 
d="M-363 -254v191h144l-66 -191h-78z" />
    <glyph glyph-name="glyph474" horiz-adv-x="0" 
d="M-262 775v-191h-144l66 191h78z" />
    <glyph glyph-name="uni02BB" unicode="&#x2bb;" horiz-adv-x="228" 
d="M176 840v-286h-147l67 286h80z" />
    <glyph glyph-name="uni02BC" unicode="&#x2bc;" horiz-adv-x="228" 
d="M52 554v286h147l-67 -286h-80z" />
    <glyph glyph-name="acute" unicode="&#xb4;" 
d="M187 584l77 154h131l-88 -154h-120z" />
    <glyph glyph-name="breve" unicode="&#x2d8;" 
d="M224.5 595q-38.5 21 -63 55.5t-27.5 71.5h89q6 -28 29.5 -49t54.5 -21q32 0 55 21t29 49h90q-4 -37 -28.5 -71.5t-63 -55.5t-82.5 -21t-82.5 21z" />
    <glyph glyph-name="caron" unicode="&#x2c7;" 
d="M487 738l-182 -162l-182 162h131l51 -49l51 49h131z" />
    <glyph glyph-name="cedilla" unicode="&#xb8;" 
d="M341 -51q22 -20 22 -46q0 -34 -29.5 -58t-70.5 -24q-47 0 -95 10l11 64q14 -5 34.5 -9t33.5 -4q11 0 18 5.5t7 15.5q0 14 -22.5 23t-68.5 10l43 127h86l-32 -95l2 1q39 0 61 -20z" />
    <glyph glyph-name="circumflex" unicode="&#x2c6;" 
d="M353 584l-51 49l-51 -49h-131l182 162l182 -162h-131z" />
    <glyph glyph-name="dieresis" unicode="&#xa8;" 
d="M133 602.5q-23 22.5 -23 54.5t23 55t55 23q31 0 54 -22.5t23 -53.5q0 -32 -22.5 -55.5t-54.5 -23.5t-55 22.5zM361 602.5q-23 22.5 -23 54.5t23 55t55 23q31 0 54 -22.5t23 -53.5q0 -32 -22.5 -55.5t-54.5 -23.5t-55 22.5z" />
    <glyph glyph-name="dotaccent" unicode="&#x2d9;" 
d="M245.5 613q-23.5 23 -23.5 54q0 32 23.5 55t54.5 23q30 0 53.5 -23t23.5 -53q0 -32 -23 -55.5t-54 -23.5t-54.5 23z" />
    <glyph glyph-name="grave" unicode="`" 
d="M214 738h131l77 -154h-120z" />
    <glyph glyph-name="hungarumlaut" unicode="&#x2dd;" 
d="M301 738h-131l-77 -154h120zM519 738h-131l-77 -154h120z" />
    <glyph glyph-name="macron" unicode="&#xaf;" 
d="M450 711v-102h-346v102h346z" />
    <glyph glyph-name="ogonek" unicode="&#x2db;" 
d="M228.5 -152q-31.5 27 -31.5 64q0 53 53 88l54 35l83 -35l-42 -19q-54 -24 -54 -54q0 -28 33 -28q28 0 54 18l24 -73q-39 -23 -93 -23q-49 0 -80.5 27z" />
    <glyph glyph-name="ring" unicode="&#x2da;" 
d="M226 593q-34 32 -34 77t34 77t81 32q46 0 80 -32t34 -77t-34 -77t-80 -32q-47 0 -81 32zM339.5 638.5q13.5 12.5 13.5 31.5t-13.5 31.5t-32.5 12.5t-32.5 -12.5t-13.5 -31.5t13.5 -31.5t32.5 -12.5t32.5 12.5z" />
    <glyph glyph-name="tilde" unicode="&#x2dc;" 
d="M310 590q-18 9 -40 25q-16 12 -26.5 18t-20.5 6q-16 0 -31.5 -15.5t-27.5 -40.5l-65 44q30 58 55.5 81.5t59.5 23.5q21 0 38.5 -9t40.5 -26q16 -12 26.5 -18t20.5 -6q16 0 31.5 16t27.5 41l65 -53q-30 -53 -55.5 -74.5t-59.5 -21.5q-21 0 -39 9z" />
    <glyph glyph-name="cedilla.case" 
d="M341 -51q22 -20 22 -46q0 -34 -29.5 -58t-70.5 -24q-47 0 -95 10l11 64q14 -5 34.5 -9t33.5 -4q11 0 18 5.5t7 15.5q0 14 -22.5 23t-68.5 10l43 127h86l-32 -95l2 1q39 0 61 -20z" />
    <glyph glyph-name="glyph491" 
d="M234.5 -152q-31.5 27 -31.5 64q0 53 53 88l54 35l83 -35l-42 -19q-54 -24 -54 -54q0 -28 33 -28q28 0 54 18l24 -73q-39 -23 -93 -23q-49 0 -80.5 27z" />
    <glyph glyph-name="ogonek.case" 
d="M234.5 -152q-31.5 27 -31.5 64q0 53 53 88l54 35l83 -35l-42 -19q-54 -24 -54 -54q0 -28 33 -28q28 0 54 18l24 -73q-39 -23 -93 -23q-49 0 -80.5 27z" />
    <glyph glyph-name="glyph493" 
d="M234.5 -152q-31.5 27 -31.5 64q0 53 53 88l54 35l83 -35l-42 -19q-54 -24 -54 -54q0 -28 33 -28q28 0 54 18l24 -73q-39 -23 -93 -23q-49 0 -80.5 27z" />
    <glyph glyph-name="glyph494" 
d="M245 613.5q-23 22.5 -23 54.5t23 55t55 23q31 0 54 -22.5t23 -53.5q0 -32 -22.5 -55.5t-54.5 -23.5t-55 22.5z" />
    <glyph glyph-name="glyph495" horiz-adv-x="310" 
d="M217 710l-38 -234h-84v234h122z" />
    <glyph glyph-name="tonos" unicode="&#x384;" 
d="M197 600l62 169h131l-79 -169h-114z" />
    <glyph glyph-name="dieresistonos" unicode="&#x385;" 
d="M461 770l-64 -176h-104l48 176h120zM160 606q-21 21 -21 49q0 29 20.5 49.5t49.5 20.5q28 0 49 -20t21 -48q0 -29 -20.5 -50.5t-49.5 -21.5q-28 0 -49 21zM474 606q-21 21 -21 49q0 29 20.5 49.5t49.5 20.5q28 0 49 -20t21 -48q0 -29 -20.5 -50.5t-49.5 -21.5
q-28 0 -49 21z" />
    <glyph glyph-name="uniEA00" unicode="&#xea00;" horiz-adv-x="896" 
d="M521 793q41 -63 41 -126q0 -41 -15.5 -78t-41.5 -62q-27 -27 -27 -57q0 -33 31 -52q14 -9 35 -9q33 0 58 26t21 64q-1 11 -1 31q0 128 117 138q-22 -40 -22 -75q0 -26 10 -48t31 -54q28 -44 43 -79.5t15 -87.5q0 -127 -65 -203t-146.5 -111.5t-81.5 -27.5q38 19 53.5 47
t15.5 67q0 44 -26.5 75.5t-70.5 31.5q-21 0 -42 -7q-18 -6 -35 -6q-41 0 -68 32t-27 84q0 28 11 66q-48 -43 -72.5 -96.5t-24.5 -109.5q0 -64 30.5 -118t84.5 -82q-142 32 -207 112t-65 180q0 51 15 98t40 82q27 38 59.5 67.5t80.5 66.5q49 38 77 64.5t46.5 63t18.5 83.5
q0 51 -27 126q90 -53 131 -116z" />
    </font>
</defs>
</svg>
